<?xml version="1.0" standalone="no"?>
<!DOCTYPE svg PUBLIC "-//W3C//DTD SVG 1.1//EN" "http://www.w3.org/Graphics/SVG/1.1/DTD/svg11.dtd" >
<svg xmlns="http://www.w3.org/2000/svg" xmlns:xlink="http://www.w3.org/1999/xlink" version="1.1">
<metadata>
Created by FontForge 20170731 at Tue Dec  1 01:25:51 2020
 By Aleksey,,,
Copyright (c) 2020 by Ligature srl. All rights reserved.
</metadata>
<defs>
<font id="EastmanCompressed-Black" horiz-adv-x="0" >
  <font-face 
    font-family="Eastman Compressed Black"
    font-weight="800"
    font-stretch="ultra-condensed"
    units-per-em="1000"
    panose-1="0 0 9 8 0 0 0 0 0 0"
    ascent="800"
    descent="-200"
    x-height="557"
    cap-height="700"
    bbox="-666 -251 1136 1102"
    underline-thickness="107"
    underline-position="-306"
    unicode-range="U+0020-F8FF"
  />
<missing-glyph horiz-adv-x="609" 
 />
    <glyph glyph-name=".notdef" horiz-adv-x="609" 
 />
    <glyph glyph-name=".null" 
 />
    <glyph glyph-name="nonmarkingreturn" horiz-adv-x="333" 
 />
    <glyph glyph-name="space" unicode=" " horiz-adv-x="280" 
 />
    <glyph glyph-name="exclam" unicode="!" horiz-adv-x="294" 
d="M61 453v247h180v-245l-30 -229h-120zM53 0v173h183v-173h-183z" />
    <glyph glyph-name="quotedbl" unicode="&#x22;" horiz-adv-x="345" 
d="M163 738l-17 -212h-106l-18 212h141zM322 738l-17 -212h-106l-18 212h141z" />
    <glyph glyph-name="numbersign" unicode="#" horiz-adv-x="746" 
d="M724 525v-145h-119l-32 -115h99v-145h-139l-31 -110h-175l31 110h-93l-31 -110h-175l31 110h-68v145h109l32 115h-89v145h130l33 118h175l-33 -118h92l33 118h175l-33 -118h78zM306 265h92l32 115h-92z" />
    <glyph glyph-name="dollar" unicode="$" horiz-adv-x="375" 
d="M334 67q-33 -48 -90 -68v-75h-116v63q-33 2 -60.5 9t-59.5 19l23 157q42 -19 84 -19q27 0 40.5 11.5t13.5 35.5q0 15 -12.5 34t-40.5 52q-45 57 -73 108t-28 107q0 73 29 124t84 73v83h116v-68q28 -2 57 -8t49 -14l-22 -164q-33 18 -63 18q-25 0 -38.5 -13t-13.5 -36
q0 -20 13 -39.5t44 -56.5q44 -54 70.5 -105t26.5 -113q0 -67 -33 -115z" />
    <glyph glyph-name="percent" unicode="%" horiz-adv-x="739" 
d="M47.5 391q-36.5 48 -36.5 141t36.5 141t107.5 48t107.5 -48t36.5 -141q0 -94 -36.5 -141.5t-108.5 -47.5q-70 0 -106.5 48zM171.5 470.5q5.5 18.5 5.5 60.5q0 43 -5.5 61.5t-17.5 18.5q-11 0 -16.5 -18.5t-5.5 -60.5q0 -43 5.5 -61.5t17.5 -18.5q11 0 16.5 18.5zM310 0
h-121l240 700h120zM475.5 40q-36.5 48 -36.5 141t36.5 141t107.5 48t107.5 -48t36.5 -141q0 -94 -36.5 -141.5t-108.5 -47.5q-70 0 -106.5 48zM599.5 119.5q5.5 18.5 5.5 60.5q0 43 -5.5 61.5t-17.5 18.5q-11 0 -16.5 -18.5t-5.5 -60.5q0 -43 5.5 -61.5t17.5 -18.5
q11 0 16.5 18.5z" />
    <glyph glyph-name="ampersand" unicode="&#x26;" horiz-adv-x="542" 
d="M537 440v-104h-58q2 -18 2 -51q0 -95 -34 -163q29 -9 57 -6v-118q-18 -2 -28 -2q-57 0 -112 32q-61 -39 -146 -39q-90 0 -143 59t-53 164q0 69 26.5 126t73.5 95q-3 30 -3 59q2 103 47.5 161.5t133.5 58.5q75 0 119.5 -40t44.5 -114q0 -29 -8.5 -60.5t-24.5 -57.5h106z
M368 336h-58v104q24 41 24 88q0 22 -9 35.5t-27 13.5q-19 0 -31.5 -21t-12.5 -65q0 -72 25.5 -151t68.5 -137q20 54 20 133zM164.5 141.5q21.5 -28.5 60.5 -28.5q20 0 35 4q-66 77 -105 182q-12 -36 -12 -80q0 -49 21.5 -77.5z" />
    <glyph glyph-name="quotesingle" unicode="'" horiz-adv-x="185" 
d="M163 738l-17 -212h-106l-18 212h141z" />
    <glyph glyph-name="parenleft" unicode="(" horiz-adv-x="396" 
d="M254 -189q-113 90 -172.5 209t-59.5 261q0 140 59.5 259.5t172.5 209.5l132 -100q-84 -80 -125.5 -173.5t-41.5 -195.5q0 -210 167 -370z" />
    <glyph glyph-name="parenright" unicode=")" horiz-adv-x="396" 
d="M142 750q113 -90 172.5 -209t59.5 -261q0 -140 -59.5 -259.5t-172.5 -209.5l-132 100q84 80 125.5 173.5t41.5 195.5q0 210 -167 370z" />
    <glyph glyph-name="asterisk" unicode="*" horiz-adv-x="454" 
d="M339 495l-33 -2l25 -22l67 -78l-106 -76l-53 87l-12 31l-13 -31l-53 -87l-106 76l68 78l25 21l-33 3l-99 24l39 123l95 -40l29 -18l-9 35l-7 101h129l-8 -101l-8 -34l28 17l95 40l39 -123z" />
    <glyph glyph-name="plus" unicode="+" horiz-adv-x="310" 
d="M231 395h69v-138h-69v-76h-153v76h-68v138h68v76h153v-76z" />
    <glyph glyph-name="comma" unicode="," horiz-adv-x="289" 
d="M39 -89q36 24 51 41.5t16 47.5h-53v173h174q13 -65 13 -116q0 -65 -20 -106.5t-52.5 -65.5t-83.5 -46z" />
    <glyph glyph-name="hyphen" unicode="-" horiz-adv-x="275" 
d="M265 309v-153h-255v153h255z" />
    <glyph glyph-name="period" unicode="." horiz-adv-x="289" 
d="M53 0v173h183v-173h-183z" />
    <glyph glyph-name="slash" unicode="/" horiz-adv-x="539" 
d="M182 -95h-183l358 805h183z" />
    <glyph glyph-name="zero" unicode="0" horiz-adv-x="468" 
d="M68 78.5q-56 92.5 -56 271.5t56.5 271.5t165.5 92.5t165.5 -92.5t56.5 -271.5t-57 -271.5t-167 -92.5q-108 0 -164 92.5zM274 350q0 102 -10 151t-31 49q-20 0 -29.5 -49t-9.5 -151q0 -103 9.5 -151.5t30.5 -48.5q40 0 40 200z" />
    <glyph glyph-name="one" unicode="1" horiz-adv-x="302" 
d="M2 672l120 28h145v-700h-178v525l-63 -15z" />
    <glyph glyph-name="two" unicode="2" horiz-adv-x="400" 
d="M10 135q66 80 109 167.5t43 163.5q0 34 -18.5 54.5t-48.5 20.5q-27 0 -55 -18l-25 167q72 24 129 24q105 0 161 -58.5t56 -171.5q0 -77 -42.5 -161.5t-107.5 -154.5h159v-168h-360v135z" />
    <glyph glyph-name="three" unicode="3" horiz-adv-x="385" 
d="M15 9l24 156q39 -14 77 -14q29 0 43.5 18t14.5 56q0 45 -19.5 62t-62.5 17q-18 0 -28 -1l1 105l79 134h-115v158h297l9 -128l-85 -156q51 -23 78.5 -72.5t27.5 -118.5q0 -237 -202 -237q-65 0 -139 21z" />
    <glyph glyph-name="four" unicode="4" horiz-adv-x="472" 
d="M426 278h34v-159h-34v-119h-178v119h-212l-31 117l181 464h240v-422zM248 466l-53 -188h53v188z" />
    <glyph glyph-name="five" unicode="5" horiz-adv-x="397" 
d="M90 -7q-36 6 -69 18l25 161q20 -7 44.5 -12t39.5 -5q55 0 55 73q0 37 -15.5 56t-40.5 19q-14 0 -33 -4t-33 -12l-32 70l9 343h300v-163h-126l-2 -99l17 1q6 0 20 -2q55 -11 86.5 -67.5t31.5 -144.5q0 -113 -56 -175.5t-153 -62.5q-32 0 -68 6z" />
    <glyph glyph-name="six" unicode="6" horiz-adv-x="467" 
d="M70 70.5q-58 84.5 -58 245.5q0 195 64 296.5t191 101.5q59 0 126 -22l-23 -160q-46 24 -80 24q-96 0 -96 -191q14 47 41.5 73t65.5 26q72 0 113 -59t41 -170q0 -118 -56.5 -183.5t-163.5 -65.5t-165 84.5zM273 244q0 94 -28 94q-36 0 -36 -96q0 -46 8 -69.5t23 -23.5
q33 0 33 95z" />
    <glyph glyph-name="seven" unicode="7" horiz-adv-x="378" 
d="M20 700h318l35 -106l-142 -594h-183l128 537h-156v163z" />
    <glyph glyph-name="eight" unicode="8" horiz-adv-x="457" 
d="M69.5 41.5q-57.5 55.5 -57.5 160.5q0 67 21 110.5t62 59.5q-35 17 -54 53t-19 89q0 94 53 147t153 53q98 0 152.5 -51.5t54.5 -148.5q0 -52 -18.5 -88.5t-53.5 -53.5q39 -15 60.5 -58.5t21.5 -111.5q0 -102 -56 -159t-161 -57q-101 0 -158.5 55.5zM261 486q0 68 -33 68
q-31 0 -31 -68q0 -67 31 -67q33 0 33 67zM257.5 166q9.5 19 9.5 59q0 43 -9.5 63.5t-29.5 20.5q-19 0 -28.5 -20.5t-9.5 -63.5q0 -40 9.5 -59t28.5 -19q20 0 29.5 19z" />
    <glyph glyph-name="nine" unicode="9" horiz-adv-x="467" 
d="M397 629.5q58 -84.5 58 -245.5q0 -196 -64.5 -297t-191.5 -101q-58 0 -125 22l23 160q45 -24 79 -24q97 0 97 191q-14 -47 -41.5 -73t-65.5 -26q-72 0 -113 59t-41 170q0 118 56.5 183.5t163.5 65.5t165 -84.5zM194 456q0 -94 27 -94q36 0 36 96q0 93 -30 93
q-33 0 -33 -95z" />
    <glyph glyph-name="colon" unicode=":" horiz-adv-x="289" 
d="M236 558v-173h-183v173h183zM54 0v173h183v-173h-183z" />
    <glyph glyph-name="semicolon" unicode=";" horiz-adv-x="289" 
d="M239 384h-184v173h184v-173zM39 -89q36 24 51 41.5t16 47.5h-53v173h174q13 -65 13 -116q0 -65 -20 -106.5t-52.5 -65.5t-83.5 -46z" />
    <glyph glyph-name="less" unicode="&#x3c;" horiz-adv-x="363" 
d="M22 393l214 256l105 -106l-170 -194l170 -195l-105 -106l-214 257v88z" />
    <glyph glyph-name="equal" unicode="=" horiz-adv-x="275" 
d="M265 528v-129h-255v129h255zM265 343v-130h-255v130h255z" />
    <glyph glyph-name="greater" unicode="&#x3e;" horiz-adv-x="363" 
d="M341 307l-214 -256l-105 106l170 194l-170 195l105 106l214 -257v-88z" />
    <glyph glyph-name="question" unicode="?" horiz-adv-x="370" 
d="M111 226q-4 27 -4 56q0 37 9.5 69.5t29.5 65.5q24 39 24 73q0 28 -14.5 42t-39.5 14q-34 0 -82 -28l-22 165q75 28 147 28q92 0 149 -47.5t57 -140.5q0 -34 -9.5 -61.5t-21.5 -45.5t-39 -55q-28 -37 -42 -66t-16 -69h-126zM86 0v173h183v-173h-183z" />
    <glyph glyph-name="at" unicode="@" horiz-adv-x="761" 
d="M660 621.5q79 -90.5 79 -256.5q0 -67 -19.5 -140.5t-66 -126t-121.5 -52.5q-99 0 -125 77q-25 -37 -57.5 -57.5t-67.5 -20.5q-50 0 -76.5 40t-26.5 114q0 66 20 144t62 133.5t103 55.5q48 0 75 -46l7 47h149l-53 -328q-5 -25 -5 -44q0 -42 30 -42q33 0 58 40t38 100
t13 118q0 136 -67.5 204t-186.5 68q-91 0 -168 -52.5t-122.5 -153t-45.5 -237.5q0 -71 15.5 -125.5t65 -91.5t144.5 -37q46 0 91 8l-1 -64q-48 -7 -95 -7q-284 0 -284 317q0 149 51 264t142.5 178.5t209.5 63.5q156 0 235 -90.5zM382 211q13 30 21 69.5t8 61.5q0 25 -6 38.5
t-16 13.5q-18 0 -30.5 -31.5t-19 -72t-6.5 -63.5q0 -46 21 -46q15 0 28 30z" />
    <glyph glyph-name="A" unicode="A" horiz-adv-x="488" 
d="M486 0h-188l-12 108h-86l-12 -108h-187l117 700h253zM241 484l-28 -254h60l-27 254h-5z" />
    <glyph glyph-name="B" unicode="B" horiz-adv-x="485" 
d="M445 303.5q29 -42.5 29 -103.5q0 -94 -60.5 -147t-167.5 -53h-211v700h208q101 0 158.5 -47.5t57.5 -137.5q0 -52 -24.5 -92t-69.5 -59q51 -18 80 -60.5zM214 545v-127h6q64 0 64 59q0 37 -14 52.5t-49 15.5h-7zM228 155q35 0 52 16t17 51q0 67 -69 67h-14v-134h14z" />
    <glyph glyph-name="C" unicode="C" horiz-adv-x="399" 
d="M89.5 79q-67.5 93 -67.5 270q0 176 65 270t189 94q44 0 109 -21l-24 -174q-19 8 -34 11t-33 3q-39 0 -58.5 -41.5t-19.5 -140.5q0 -97 19 -140t59 -43q38 0 69 14l26 -173q-19 -8 -51.5 -15t-59.5 -7q-121 0 -188.5 93z" />
    <glyph glyph-name="D" unicode="D" horiz-adv-x="518" 
d="M35 0v700h210q120 0 185.5 -91.5t65.5 -256.5q0 -167 -65.5 -259.5t-185.5 -92.5h-210zM237 175q36 0 52 40.5t16 135.5q0 93 -16 133.5t-52 40.5h-16v-350h16z" />
    <glyph glyph-name="E" unicode="E" horiz-adv-x="392" 
d="M221 271v-101h156v-170h-342v700h337v-170h-151v-99h124v-160h-124z" />
    <glyph glyph-name="F" unicode="F" horiz-adv-x="378" 
d="M366 700v-170h-145v-138h129v-160h-129v-232h-186v700h331z" />
    <glyph glyph-name="G" unicode="G" horiz-adv-x="480" 
d="M263 396h192v-347q-46 -31 -89 -47t-101 -16q-120 0 -181.5 91t-61.5 272q0 177 66.5 270.5t189.5 93.5q66 0 131 -23l-25 -179q-22 11 -45 17t-40 6q-48 0 -69 -44t-21 -142q0 -192 58 -192q12 0 28 7v86h-32v147z" />
    <glyph glyph-name="H" unicode="H" horiz-adv-x="521" 
d="M297 437v263h188v-700h-188v261h-73v-261h-189v700h189v-263h73z" />
    <glyph glyph-name="I" unicode="I" horiz-adv-x="257" 
d="M222 0h-187v700h187v-700z" />
    <glyph glyph-name="J" unicode="J" horiz-adv-x="334" 
d="M4 -2l24 166q17 -1 42 -1t37 20.5t12 68.5v278h-49v170h235v-460q0 -128 -56 -191t-162 -63q-38 0 -83 12z" />
    <glyph glyph-name="K" unicode="K" horiz-adv-x="529" 
d="M385 351l137 -350h-197l-103 298l-1 -299h-186l2 700h186l-1 -295l99 295h196z" />
    <glyph glyph-name="L" unicode="L" horiz-adv-x="363" 
d="M349 0h-314v700h191v-531h123v-169z" />
    <glyph glyph-name="M" unicode="M" horiz-adv-x="588" 
d="M369 700h174l21 -700h-169l-11 304l-54 -304h-74l-52 304l-11 -304h-168l21 700h166l82 -344z" />
    <glyph glyph-name="N" unicode="N" horiz-adv-x="508" 
d="M213 0h-178v700h172l87 -298v298h179v-700h-168l-92 310v-310z" />
    <glyph glyph-name="O" unicode="O" horiz-adv-x="516" 
d="M84.5 79.5q-62.5 92.5 -62.5 269.5q0 172 60 268t176 96q110 0 173 -92.5t63 -269.5q0 -172 -60.5 -268t-175.5 -96q-111 0 -173.5 92.5zM293 211q11 43 11 138q0 97 -10.5 140t-35.5 43q-24 0 -35 -42.5t-11 -139.5q0 -93 10.5 -137.5t35.5 -44.5q24 0 35 43z" />
    <glyph glyph-name="P" unicode="P" horiz-adv-x="486" 
d="M409 633q62 -67 62 -193q0 -122 -59.5 -192t-171.5 -70h-19v-178h-186v700h205q107 0 169 -67zM236 341q25 0 39 25.5t14 73.5q0 44 -14 70.5t-39 26.5h-15v-196h15z" />
    <glyph glyph-name="Q" unicode="Q" horiz-adv-x="521" 
d="M524 0q-44 0 -147 -7q-80 -6 -118 -6h-1v0h-1v0q-110 1 -172.5 93t-62.5 269q0 172 60 268t176 96q110 0 173 -92.5t63 -269.5q0 -129 -34 -215q23 14 64 14v-150zM222.5 212.5q10.5 -44.5 35.5 -44.5q24 0 35 43t11 138q0 97 -10.5 140t-35.5 43q-24 0 -35 -42.5
t-11 -139.5q0 -93 10.5 -137.5z" />
    <glyph glyph-name="R" unicode="R" horiz-adv-x="485" 
d="M287 0l-48 201h-18v-201h-186v700h205q107 0 169 -64t62 -183q0 -64 -18.5 -114.5t-54.5 -83.5l81 -255h-192zM221 537v-171h15q25 0 39 21.5t14 63.5q0 40 -14 63t-39 23h-15z" />
    <glyph glyph-name="S" unicode="S" horiz-adv-x="375" 
d="M81 -7q-35 7 -73 22l23 157q42 -19 84 -19q27 0 40.5 11.5t13.5 35.5q0 15 -12.5 34t-40.5 52q-45 57 -73 108t-28 107q0 99 52 156t149 57q31 0 70 -6.5t64 -16.5l-22 -164q-33 18 -63 18q-25 0 -38.5 -13t-13.5 -36q0 -20 13 -39.5t44 -56.5q44 -54 70.5 -105
t26.5 -113q0 -89 -55.5 -142.5t-146.5 -53.5q-49 0 -84 7z" />
    <glyph glyph-name="T" unicode="T" horiz-adv-x="392" 
d="M10 700h372v-175h-93v-525h-186v525h-93v175z" />
    <glyph glyph-name="U" unicode="U" horiz-adv-x="491" 
d="M87.5 43q-57.5 57 -57.5 154v503h186v-501q0 -46 30 -46q29 0 29 46v501h186v-503q0 -97 -58 -154t-158 -57t-157.5 57z" />
    <glyph glyph-name="V" unicode="V" horiz-adv-x="473" 
d="M355 0h-237l-113 700h187l44 -480h1l45 480h186z" />
    <glyph glyph-name="W" unicode="W" horiz-adv-x="691" 
d="M456 227l45 473h185l-106 -700h-197l-37 324l-38 -324h-197l-106 700h186l45 -473l48 473h124z" />
    <glyph glyph-name="X" unicode="X" horiz-adv-x="490" 
d="M381 348l102 -348h-195l-44 225l-41 -225h-196l98 347l-92 353h192l38 -217l38 217h192z" />
    <glyph glyph-name="Y" unicode="Y" horiz-adv-x="450" 
d="M258 700h192l-132 -500v-200h-186v197l-132 503h192l35 -293z" />
    <glyph glyph-name="Z" unicode="Z" horiz-adv-x="376" 
d="M362 0h-347v127l131 398h-126v175h338v-126l-132 -399h136v-175z" />
    <glyph glyph-name="bracketleft" unicode="[" horiz-adv-x="352" 
d="M342 -184h-320v928h320v-150h-117v-628h117v-150z" />
    <glyph glyph-name="backslash" unicode="\" horiz-adv-x="539" 
d="M182 710l358 -805h-183l-358 805h183z" />
    <glyph glyph-name="bracketright" unicode="]" horiz-adv-x="352" 
d="M10 744h320v-928h-320v150h117v628h-117v150z" />
    <glyph glyph-name="asciicircum" unicode="^" horiz-adv-x="389" 
d="M193 518l-46 -214l-142 7l101 389h174l105 -389l-142 -7z" />
    <glyph glyph-name="underscore" unicode="_" horiz-adv-x="371" 
d="M355 -35v-86h-355v86h355z" />
    <glyph glyph-name="grave" unicode="`" horiz-adv-x="250" 
d="M227 609l-107 -8l-98 142l145 20z" />
    <glyph glyph-name="a" unicode="a" horiz-adv-x="446" 
d="M366 510q52 -61 52 -165v-345h-177v71q-17 -42 -44 -63t-59 -21q-127 0 -127 179q0 81 39 124.5t118 43.5q29 0 73 -4v14q0 38 -14.5 56.5t-48.5 18.5q-23 0 -53.5 -7t-55.5 -17l-16 149q37 13 71.5 20t81.5 7q108 0 160 -61zM241 237v6q-12 2 -23 2q-17 0 -25.5 -14.5
t-8.5 -42.5q0 -27 6.5 -43t18.5 -16q32 0 32 108z" />
    <glyph glyph-name="b" unicode="b" horiz-adv-x="481" 
d="M211 40v-40h-178v738h178v-221q39 53 96 53q74 0 116 -76t42 -213q0 -139 -41.5 -216.5t-114.5 -77.5q-56 0 -98 53zM282 281q0 62 -8.5 94.5t-25.5 32.5q-20 0 -28.5 -40.5t-8.5 -89.5q0 -56 10 -91.5t27 -35.5q34 0 34 130z" />
    <glyph glyph-name="c" unicode="c" horiz-adv-x="341" 
d="M75 64q-59 78 -59 215q0 136 59 213.5t170 77.5q38 0 88 -14l-23 -160q-28 12 -50 12q-30 0 -47 -33t-17 -95q0 -63 16.5 -96.5t46.5 -33.5q27 0 51 11l24 -160q-50 -15 -88 -15q-112 0 -171 78z" />
    <glyph glyph-name="d" unicode="d" horiz-adv-x="482" 
d="M58 64.5q-41 77.5 -41 216.5q0 137 42 213t116 76q57 0 95 -53v221h179v-738h-179v40q-40 -53 -97 -53q-74 0 -115 77.5zM260 185.5q10 34.5 10 91.5q0 60 -9.5 95.5t-26.5 35.5t-25.5 -32.5t-8.5 -94.5q0 -130 34 -130q16 0 26 34.5z" />
    <glyph glyph-name="e" unicode="e" horiz-adv-x="441" 
d="M194 230q5 -50 19 -71.5t44 -21.5q55 0 106 27l27 -141q-27 -16 -68.5 -26t-83.5 -10q-105 0 -163.5 77.5t-58.5 215.5q0 134 56.5 212t164.5 78q92 0 140 -67t48 -182q0 -39 -14 -91h-217zM258 324q1 51 -6.5 75t-24.5 24t-24.5 -24t-9.5 -75h65z" />
    <glyph glyph-name="f" unicode="f" horiz-adv-x="303" 
d="M239 617.5q-7 -11.5 -7 -40.5v-20h64v-151h-64v-406h-178v406h-42v151h42v27q0 95 43.5 145.5t126.5 50.5q56 0 102 -14l-22 -146q-18 9 -42 9q-16 0 -23 -11.5z" />
    <glyph glyph-name="g" unicode="g" horiz-adv-x="445" 
d="M271 149q86 0 133 -38.5t47 -113.5q0 -85 -62 -133t-177 -48q-187 0 -187 141q0 29 15.5 54t39.5 44q-55 21 -55 88q0 28 15 52.5t38 42.5q-55 50 -55 144q0 86 55 137.5t148 51.5q54 0 88 -17l99 38l30 -116l-44 -9q29 -41 29 -85q0 -90 -51.5 -141.5t-149.5 -51.5
q-12 0 -32 2q-8 -11 -8 -20q0 -11 10.5 -16.5t23.5 -5.5h50zM207.5 428.5q-6.5 -16.5 -6.5 -45.5q0 -68 25 -68q12 0 18 18t6 49q0 29 -6 46t-18 17t-18.5 -16.5zM253.5 -43q9.5 14 9.5 40q0 47 -38 47h-12q-14 -22 -14 -49q0 -52 30 -52q15 0 24.5 14z" />
    <glyph glyph-name="h" unicode="h" horiz-adv-x="471" 
d="M413 523.5q30 -46.5 30 -141.5v-382h-178v348q0 54 -24 54q-13 0 -21.5 -22.5t-8.5 -73.5v-306h-178v738h178v-243q18 35 47 55t68 20q57 0 87 -46.5z" />
    <glyph glyph-name="i" unicode="i" horiz-adv-x="240" 
d="M209 0h-178v557h178v-557zM211 602h-184v136h184v-136z" />
    <glyph glyph-name="j" unicode="j" horiz-adv-x="243" 
d="M-14 -39q8 1 24 1q12 0 18 13.5t6 43.5v538h178v-538q0 -107 -42 -154t-137 -47q-27 0 -48 8zM213 602h-184v136h184v-136z" />
    <glyph glyph-name="k" unicode="k" horiz-adv-x="481" 
d="M366 282l111 -282h-189l-77 229v-229h-178v738h178v-403l75 222h190z" />
    <glyph glyph-name="l" unicode="l" horiz-adv-x="244" 
d="M211 0h-178v738h178v-738z" />
    <glyph glyph-name="m" unicode="m" horiz-adv-x="692" 
d="M633.5 528q30.5 -42 30.5 -133v-395h-178v354q0 48 -20 48q-24 0 -29 -58v-344h-178v354q0 48 -20 48q-13 0 -22 -19.5t-9 -64.5v-318h-177v557h177v-36q42 49 107 49q79 0 106 -69q20 33 51 51t70 18q61 0 91.5 -42z" />
    <glyph glyph-name="n" unicode="n" horiz-adv-x="468" 
d="M410 523.5q30 -46.5 30 -141.5v-382h-178v348q0 54 -23 54q-8 0 -16.5 -8.5t-14.5 -24.5v-369h-177v557h177v-64q18 36 47 56.5t68 20.5q57 0 87 -46.5z" />
    <glyph glyph-name="o" unicode="o" horiz-adv-x="464" 
d="M73.5 62q-57.5 76 -57.5 218q0 136 56 213.5t161 77.5q101 0 158 -75t57 -215q0 -138 -55.5 -216.5t-160.5 -78.5q-101 0 -158.5 76zM258 182.5q8 30.5 8 97.5q0 66 -8 96t-26 30q-19 0 -27 -29.5t-8 -95.5q0 -68 8.5 -98.5t27.5 -30.5q17 0 25 30.5z" />
    <glyph glyph-name="p" unicode="p" horiz-adv-x="479" 
d="M31 -172v729h178v-40q42 53 98 53q73 0 114.5 -77.5t41.5 -216.5q0 -137 -42 -213t-116 -76q-57 0 -96 53v-212h-178zM271.5 181.5q8.5 32.5 8.5 94.5q0 131 -34 131q-17 0 -27 -36t-10 -94t10 -93t27 -35t25.5 32.5z" />
    <glyph glyph-name="q" unicode="q" horiz-adv-x="478" 
d="M269 38q-40 -51 -95 -51q-74 0 -116 76t-42 213q0 139 41.5 216.5t114.5 77.5q57 0 97 -53v40h178v-729h-178v210zM261 188.5q8 39.5 8 90.5q0 52 -8.5 90t-27.5 38q-34 0 -34 -131q0 -62 8.5 -94.5t25.5 -32.5q20 0 28 39.5z" />
    <glyph glyph-name="r" unicode="r" horiz-adv-x="310" 
d="M293 565.5q8 -1.5 12 -3.5l-9 -186q-18 7 -38 7q-49 0 -49 -131v-252h-178v557h178v-45q30 55 72 55q4 0 12 -1.5z" />
    <glyph glyph-name="s" unicode="s" horiz-adv-x="339" 
d="M82.5 -8q-31.5 5 -71.5 17l22 156q20 -11 44.5 -17.5t42.5 -6.5q26 0 26 27q0 11 -10 22t-36 33q-42 36 -63 73.5t-21 103.5q0 55 24 93.5t64 57.5t86 19q67 0 120 -20l-21 -156q-24 12 -39.5 16.5t-30.5 4.5q-16 0 -23 -7.5t-7 -21.5q0 -12 9 -22.5t20 -19.5t15 -13
q45 -39 69.5 -77t24.5 -99q0 -76 -48 -122t-126 -46q-39 0 -70.5 5z" />
    <glyph glyph-name="t" unicode="t" horiz-adv-x="333" 
d="M87.5 35q-41.5 49 -41.5 144v227h-37v77l52 74l89 125h74v-125h97v-151h-97v-218q0 -40 32 -40q16 0 44 11l21 -154q-66 -19 -112 -19q-80 0 -121.5 49z" />
    <glyph glyph-name="u" unicode="u" horiz-adv-x="469" 
d="M260 557h177v-557h-177v64q-18 -36 -47 -56.5t-68 -20.5q-57 0 -87 46.5t-30 141.5v382h178v-348q0 -54 23 -54q8 0 16.5 8.5t14.5 24.5v369z" />
    <glyph glyph-name="v" unicode="v" horiz-adv-x="455" 
d="M343 0h-231l-108 557h181l41 -368h3l40 368h182z" />
    <glyph glyph-name="w" unicode="w" horiz-adv-x="631" 
d="M408 199l35 358h182l-102 -557h-177l-30 278l-31 -278h-177l-102 557h182l35 -358l36 358h115z" />
    <glyph glyph-name="x" unicode="x" horiz-adv-x="460" 
d="M357 273l100 -273h-189l-39 156l-36 -156h-189l98 273l-91 284h185l33 -153l34 153h184z" />
    <glyph glyph-name="y" unicode="y" horiz-adv-x="455" 
d="M229 187l40 370h182l-117 -557l-36 -171h-178l32 164l-28 -1l-120 565h181l41 -370h3z" />
    <glyph glyph-name="z" unicode="z" horiz-adv-x="377" 
d="M362 0h-346v117l125 284h-120v156h337v-116l-124 -283h128v-158z" />
    <glyph glyph-name="braceleft" unicode="{" horiz-adv-x="398" 
d="M388 595q-53 -1 -73.5 -20.5t-20.5 -61.5q0 -26 3 -53q2 -36 2 -54q0 -60 -31 -90t-90 -35v-3q59 -5 90 -35t31 -90q0 -16 -2 -52q-3 -27 -3 -55q0 -42 21 -61.5t73 -20.5v-148l-40 -1q-99 0 -155 18.5t-79 53t-23 86.5q0 20 3 43l3 34q7 58 7 94t-25 53t-69 17v132
q44 0 69 17t25 51q0 41 -7 97l-3 32q-3 23 -3 43q0 79 55.5 118.5t198.5 39.5q28 0 43 -1v-148z" />
    <glyph glyph-name="bar" unicode="|" horiz-adv-x="244" 
d="M209 700v-805h-174v805h174z" />
    <glyph glyph-name="braceright" unicode="}" horiz-adv-x="398" 
d="M10 -34q53 1 73.5 20.5t20.5 61.5q0 18 -2 52q-3 27 -3 55q0 60 31 90t91 35v3q-60 6 -91 35t-31 90q0 26 3 53q2 36 2 53q0 42 -20.5 61.5t-73.5 21.5v148l40 1q99 0 155 -18.5t79 -53t23 -86.5q0 -20 -3 -43l-3 -33q-7 -56 -7 -93q0 -72 94 -72v-132q-94 0 -94 -70
q0 -39 7 -93l3 -34q3 -23 3 -44q0 -52 -22.5 -86t-78 -52.5t-152.5 -18.5q-29 0 -44 1v148z" />
    <glyph glyph-name="asciitilde" unicode="~" horiz-adv-x="368" 
d="M10 573q-1 53 27.5 84.5t76.5 31.5q19 0 36.5 -4.5t43.5 -12.5q25 -9 33 -9q11 0 18.5 10t6.5 26l106 -19q1 -53 -27 -84.5t-76 -31.5q-20 0 -39.5 5t-43.5 13q-26 8 -31 8q-12 0 -19 -10t-7 -25z" />
    <glyph glyph-name="uni00A0" unicode="&#xa0;" horiz-adv-x="280" 
 />
    <glyph glyph-name="exclamdown" unicode="&#xa1;" horiz-adv-x="294" 
d="M241 557v-173h-183v173h183zM233 104v-247h-180v245l31 229h119z" />
    <glyph glyph-name="cent" unicode="&#xa2;" horiz-adv-x="363" 
d="M334 1q-46 -14 -80 -15l-9 -135h-116l11 159q-61 31 -92.5 100t-31.5 169q0 113 42 187.5t122 95.5l10 146h116l-10 -143q17 -3 37 -9l-23 -160q-28 12 -50 12q-30 0 -47 -33t-17 -95q0 -63 16.5 -96.5t46.5 -33.5q27 0 51 11z" />
    <glyph glyph-name="sterling" unicode="&#xa3;" horiz-adv-x="445" 
d="M253 146h178v-148h-420v113l56 26v135h-52v81h52v96q0 129 57.5 196.5t163.5 67.5q44 0 110 -21l-25 -174q-19 8 -34 11t-33 3q-27 0 -40 -20t-13 -67v-92h102v-81h-102v-126z" />
    <glyph glyph-name="yen" unicode="&#xa5;" horiz-adv-x="450" 
d="M115 262l-115 438h192l35 -293l31 293h192l-116 -438h63v-65h-79v-34h79v-64h-79v-99h-186v99h-78v64h78v34h-78v65h61z" />
    <glyph glyph-name="brokenbar" unicode="&#xa6;" horiz-adv-x="297" 
d="M236 700v-320h-175v320h175zM236 237v-320h-175v320h175z" />
    <glyph glyph-name="section" unicode="&#xa7;" horiz-adv-x="414" 
d="M313 509.5q15 -33.5 19 -41.5q37 -80 55.5 -137.5t18.5 -123.5q0 -69 -29.5 -118.5t-81.5 -75t-119 -25.5q-32 0 -66 7t-84 22l22 134q46 -17 77 -22q-11 36 -44 107q-36 79 -54.5 136t-18.5 123q0 103 63.5 160.5t166.5 57.5q59 0 149 -28l-21 -135q-42 16 -77 22
q9 -29 24 -62.5zM258 210q0 40 -9 78t-28 98q-18 59 -27 94t-14 76q-25 -22 -25 -63q0 -42 9.5 -82t28.5 -98q16 -52 26 -88.5t15 -77.5q24 21 24 63z" />
    <glyph glyph-name="dieresis" unicode="&#xa8;" horiz-adv-x="337" 
d="M147 602h-125v136h125v-136zM315 602h-125v136h125v-136z" />
    <glyph glyph-name="copyright" unicode="&#xa9;" horiz-adv-x="644" 
d="M167 30q-68 42 -106.5 123t-38.5 194q0 115 38.5 197t106.5 124.5t154 42.5q87 0 155 -42.5t106.5 -124.5t38.5 -197q0 -114 -38.5 -195t-106.5 -122.5t-155 -41.5q-86 0 -154 42zM442.5 88.5q53.5 35.5 84 102t30.5 156.5q0 91 -30.5 159t-84 104t-121.5 36
q-67 0 -120.5 -36t-83.5 -104t-30 -159q0 -90 30 -156.5t83.5 -102t120.5 -35.5q68 0 121.5 35.5zM224 146.5q-42 29.5 -65 83t-23 123.5q0 107 51 171.5t140 64.5q59 0 99 -29.5t65 -86.5l-110 -69q-15 31 -45 31q-24 0 -39 -23.5t-15 -57.5q0 -35 14.5 -59t37.5 -24
q14 0 26.5 7.5t20.5 22.5l110 -69q-24 -56 -67 -85.5t-102 -29.5q-56 0 -98 29.5z" />
    <glyph glyph-name="ordfeminine" unicode="&#xaa;" horiz-adv-x="263" 
d="M218 717q29 -34 29 -86v-198h-101v27q-10 -17 -24.5 -25.5t-28.5 -8.5q-36 0 -56.5 29t-20.5 82q0 42 21.5 66.5t62.5 24.5q26 0 46 -5v5q0 18 -5.5 26.5t-22.5 8.5q-15 0 -32 -3t-28 -9l-18 84q15 7 38.5 11.5t49.5 4.5q61 0 90 -34zM141.5 532q4.5 11 4.5 29v5
q-5 4 -12 4q-17 0 -17 -27q0 -22 11 -22q9 0 13.5 11zM246 303h-226v85h226v-85z" />
    <glyph glyph-name="guillemotleft" unicode="&#xab;" horiz-adv-x="554" 
d="M291 84l-107 -55l-174 203v67l171 201l110 -54l-129 -181zM544 84l-110 -55l-196 230v11l196 230l110 -54l-130 -181z" />
    <glyph glyph-name="logicalnot" unicode="&#xac;" horiz-adv-x="421" 
d="M10 278v153h401v-268h-151v115h-250z" />
    <glyph glyph-name="uni00AD" unicode="&#xad;" horiz-adv-x="275" 
d="M265 309v-153h-255v153h255z" />
    <glyph glyph-name="registered" unicode="&#xae;" horiz-adv-x="362" 
d="M297 687q43 -56 43 -151t-43 -151t-117 -56q-73 0 -115.5 56t-42.5 151t42.5 151t115.5 56q74 0 117 -56zM267.5 412.5q32.5 45.5 32.5 123.5t-32.5 123.5t-87.5 45.5q-54 0 -86 -45.5t-32 -123.5t32 -123.5t86 -45.5q55 0 87.5 45.5zM269 439h-71l-13 63h-8v-63h-67v218
h74q38 0 59.5 -20t21.5 -58q0 -37 -20 -57zM177 553h6q16 0 16 25q0 9 -4.5 15t-11.5 6h-6v-46z" />
    <glyph glyph-name="macron" unicode="&#xaf;" horiz-adv-x="325" 
d="M303 616h-280v99h280v-99z" />
    <glyph glyph-name="degree" unicode="&#xb0;" horiz-adv-x="365" 
d="M102 413.5q-37 21.5 -58.5 58.5t-21.5 81q0 43 21.5 80t58.5 59t80 22q44 0 81 -22t58.5 -59t21.5 -80q0 -44 -22 -81t-59 -58.5t-80 -21.5t-80 21.5zM252 483q29 29 29 70t-29 70t-70 29t-69.5 -29t-28.5 -70t28.5 -70t69.5 -29t70 29z" />
    <glyph glyph-name="plusminus" unicode="&#xb1;" horiz-adv-x="310" 
d="M231 531v-76h69v-138h-69v-76h-153v76h-68v138h68v76h153zM294 89h-284v128h284v-128z" />
    <glyph glyph-name="uni00B2" unicode="&#xb2;" horiz-adv-x="256" 
d="M11 533q35 22 68 64q14 19 20 34.5t6 31.5q0 15 -10.5 23t-29.5 8q-15 0 -34 -7l-17 109q46 13 83 13q67 0 105 -33t38 -86q0 -59 -55 -119l-14 -16h73v-114h-233v92z" />
    <glyph glyph-name="uni00B3" unicode="&#xb3;" horiz-adv-x="241" 
d="M11 445l16 109q27 -8 49 -8q25 0 25 24q0 22 -25 23l-35 1v60l48 58h-68v92h189l8 -87l-47 -55q6 -3 7 -4q52 -28 52 -98q0 -125 -130 -125q-42 0 -89 10z" />
    <glyph glyph-name="acute" unicode="&#xb4;" horiz-adv-x="250" 
d="M227 743l-97 -142l-108 8l61 154z" />
    <glyph glyph-name="uni00B5" unicode="&#xb5;" horiz-adv-x="469" 
d="M260 557h178v-557h-178v63q-22 -44 -59 -63l11 -171h-184l1 521v207h178v-348q0 -54 23 -54q7 0 15.5 8t14.5 24v370z" />
    <glyph glyph-name="paragraph" unicode="&#xb6;" horiz-adv-x="597" 
d="M355 700v-820h-130v364q-103 4 -156.5 62.5t-53.5 167.5q0 107 53.5 164.5t156.5 61.5h130zM431 -120v820h130v-820h-130z" />
    <glyph glyph-name="periodcentered" unicode="&#xb7;" horiz-adv-x="176" 
d="M16 229v137h145v-137h-145z" />
    <glyph glyph-name="cedilla" unicode="&#xb8;" horiz-adv-x="292" 
d="M171 -29q37 -5 59.5 -24t22.5 -48q0 -39 -37.5 -60t-100.5 -21q-44 0 -74 6l15 70q22 -4 37 -4q32 0 32 18q0 19 -33 19q-13 0 -21 -1l22 82h89z" />
    <glyph glyph-name="uni00B9" unicode="&#xb9;" horiz-adv-x="197" 
d="M11 786l78 14h97v-359h-119v245l-40 -8z" />
    <glyph glyph-name="ordmasculine" unicode="&#xba;" horiz-adv-x="287" 
d="M50.5 468q-34.5 42 -34.5 121q0 75 33 118.5t96 43.5q58 0 92 -41.5t34 -119.5q0 -76 -32.5 -120t-93.5 -44q-60 0 -94.5 42zM163 534q7 19 7 55q0 34 -6.5 53.5t-18.5 19.5t-19.5 -18.5t-7.5 -53.5t6.5 -55t19.5 -20q12 0 19 19zM257 303h-226v85h226v-85z" />
    <glyph glyph-name="guillemotright" unicode="&#xbb;" horiz-adv-x="554" 
d="M10 445l110 54l196 -230v-10l-196 -230l-110 54l129 180zM262 445l107 54l175 -202v-67l-172 -201l-110 54l130 180z" />
    <glyph glyph-name="onequarter" unicode="&#xbc;" horiz-adv-x="617" 
d="M11 696l78 14h97v-359h-119v245l-40 -8zM197 0h-121l240 700h120zM582 0h-115v56h-120l-21 72l101 234h155v-212h23v-94h-23v-56zM473 254l-35 -104h35v104z" />
    <glyph glyph-name="onehalf" unicode="&#xbd;" horiz-adv-x="571" 
d="M11 696l78 14h97v-359h-119v245l-40 -8zM197 0h-121l240 700h120zM326 92q35 22 68 64q14 19 20 34.5t6 31.5q0 15 -10.5 23t-29.5 8q-15 0 -34 -7l-17 109q46 13 83 13q67 0 105 -33t38 -86q0 -59 -55 -119l-14 -16h73v-114h-233v92z" />
    <glyph glyph-name="threequarters" unicode="&#xbe;" horiz-adv-x="661" 
d="M11 354l16 109q27 -8 49 -8q25 0 25 24q0 22 -25 23l-35 1v60l48 58h-68v92h189l8 -87l-47 -55q6 -3 7 -4q52 -28 52 -98q0 -125 -130 -125q-42 0 -89 10zM241 0h-121l240 700h120zM626 0h-115v56h-120l-21 72l101 234h155v-212h23v-94h-23v-56zM517 254l-35 -104h35v104
z" />
    <glyph glyph-name="questiondown" unicode="&#xbf;" horiz-adv-x="370" 
d="M284 557v-173h-184v173h184zM259 331q4 -27 4 -56q0 -37 -9.5 -69.5t-29.5 -65.5q-25 -41 -25 -73q0 -27 15 -41t39 -14q38 0 82 27l22 -165q-74 -28 -146 -28q-92 0 -149 47.5t-57 140.5q0 34 9.5 61.5t21.5 45.5t39 55q28 38 41.5 66.5t15.5 68.5h127z" />
    <glyph glyph-name="Agrave" unicode="&#xc0;" horiz-adv-x="488" 
d="M486 0h-188l-12 108h-86l-12 -108h-187l117 700h253zM241 484l-28 -254h60l-27 254h-5zM312 741l-138 -8l-100 110l167 34z" />
    <glyph glyph-name="Aacute" unicode="&#xc1;" horiz-adv-x="488" 
d="M486 0h-188l-12 108h-86l-12 -108h-187l117 700h253zM241 484l-28 -254h60l-27 254h-5zM414 845l-100 -110l-138 7l71 137z" />
    <glyph glyph-name="Acircumflex" unicode="&#xc2;" horiz-adv-x="488" 
d="M486 0h-188l-12 108h-86l-12 -108h-187l117 700h253zM241 484l-28 -254h60l-27 254h-5zM333 873l57 -126l-127 -8l-18 51l-19 -51l-127 8l56 126h178z" />
    <glyph glyph-name="Atilde" unicode="&#xc3;" horiz-adv-x="488" 
d="M486 0h-188l-12 108h-86l-12 -108h-187l117 700h253zM241 484l-28 -254h60l-27 254h-5zM123 753q-2 59 15.5 91.5t53.5 32.5q22 0 50 -15q16 -9 24 -9q16 0 16 28l82 -16q2 -60 -15.5 -92t-52.5 -32q-23 0 -51 15q-18 9 -25 9t-11 -7t-3 -21z" />
    <glyph glyph-name="Adieresis" unicode="&#xc4;" horiz-adv-x="488" 
d="M486 0h-188l-12 108h-86l-12 -108h-187l117 700h253zM241 484l-28 -254h60l-27 254h-5zM227 739h-128v131h128v-131zM389 739h-128v131h128v-131z" />
    <glyph glyph-name="Aring" unicode="&#xc5;" horiz-adv-x="488" 
d="M486 0h-188l-12 108h-86l-12 -108h-187l117 700h253zM241 484l-28 -254h60l-27 254h-5zM163.5 744.5q-32.5 31.5 -32.5 78.5t32.5 78t80.5 31q49 0 81.5 -31t32.5 -78t-32.5 -78.5t-81.5 -31.5q-48 0 -80.5 31.5zM265 799.5q8 9.5 8 23.5t-8 23.5t-21 9.5q-12 0 -20 -9.5
t-8 -23.5t8 -23.5t20 -9.5q13 0 21 9.5z" />
    <glyph glyph-name="AE" unicode="&#xc6;" horiz-adv-x="652" 
d="M481 271v-101h156v-170h-342v119h-81l-22 -119h-191l138 700h493v-170h-151v-99h124v-160h-124zM291 528l-53 -281h57v281h-4z" />
    <glyph glyph-name="Ccedilla" unicode="&#xc7;" horiz-adv-x="399" 
d="M293 -29q37 -5 59.5 -24t22.5 -48q0 -39 -37.5 -60t-100.5 -21q-44 0 -74 6l15 70q22 -4 37 -4q32 0 32 18q0 19 -33 19q-13 0 -21 -1l18 68q-91 24 -140 114t-49 241q0 176 65 270t189 94q44 0 109 -21l-24 -174q-19 8 -34 11t-33 3q-39 0 -58.5 -41.5t-19.5 -140.5
q0 -97 19 -140t59 -43q38 0 69 14l26 -173q-15 -6 -40.5 -12.5t-50.5 -8.5z" />
    <glyph glyph-name="Egrave" unicode="&#xc8;" horiz-adv-x="392" 
d="M221 271v-101h156v-170h-342v700h337v-170h-151v-99h124v-160h-124zM275 741l-138 -8l-100 110l167 34z" />
    <glyph glyph-name="Eacute" unicode="&#xc9;" horiz-adv-x="392" 
d="M221 271v-101h156v-170h-342v700h337v-170h-151v-99h124v-160h-124zM377 845l-100 -110l-138 7l71 137z" />
    <glyph glyph-name="Ecircumflex" unicode="&#xca;" horiz-adv-x="392" 
d="M221 271v-101h156v-170h-342v700h337v-170h-151v-99h124v-160h-124zM296 873l57 -126l-127 -8l-18 51l-19 -51l-127 8l56 126h178z" />
    <glyph glyph-name="Edieresis" unicode="&#xcb;" horiz-adv-x="392" 
d="M221 271v-101h156v-170h-342v700h337v-170h-151v-99h124v-160h-124zM190 739h-128v131h128v-131zM352 739h-128v131h128v-131z" />
    <glyph glyph-name="Igrave" unicode="&#xcc;" horiz-adv-x="257" 
d="M222 0h-187v700h187v-700zM196 741l-138 -8l-100 110l167 34z" />
    <glyph glyph-name="Iacute" unicode="&#xcd;" horiz-adv-x="257" 
d="M222 0h-187v700h187v-700zM298 845l-100 -110l-138 7l71 137z" />
    <glyph glyph-name="Icircumflex" unicode="&#xce;" horiz-adv-x="257" 
d="M222 0h-187v700h187v-700zM217 873l57 -126l-127 -8l-18 51l-19 -51l-127 8l56 126h178z" />
    <glyph glyph-name="Idieresis" unicode="&#xcf;" horiz-adv-x="257" 
d="M222 0h-187v700h187v-700zM111 739h-128v131h128v-131zM273 739h-128v131h128v-131z" />
    <glyph glyph-name="Eth" unicode="&#xd0;" horiz-adv-x="518" 
d="M245 700q120 0 185.5 -91.5t65.5 -256.5q0 -167 -65.5 -259.5t-185.5 -92.5h-210v315h-28v75h28v310h210zM237 175q36 0 52 40.5t16 135.5q0 93 -16 133.5t-52 40.5h-16v-135h58v-75h-58v-140h16z" />
    <glyph glyph-name="Ntilde" unicode="&#xd1;" horiz-adv-x="508" 
d="M213 0h-178v700h172l87 -298v298h179v-700h-168l-92 310v-310zM133 753q-2 59 15.5 91.5t53.5 32.5q22 0 50 -15q16 -9 24 -9q16 0 16 28l82 -16q2 -60 -15.5 -92t-52.5 -32q-23 0 -51 15q-18 9 -25 9t-11 -7t-3 -21z" />
    <glyph glyph-name="Ograve" unicode="&#xd2;" horiz-adv-x="516" 
d="M84.5 79.5q-62.5 92.5 -62.5 269.5q0 172 60 268t176 96q110 0 173 -92.5t63 -269.5q0 -172 -60.5 -268t-175.5 -96q-111 0 -173.5 92.5zM293 211q11 43 11 138q0 97 -10.5 140t-35.5 43q-24 0 -35 -42.5t-11 -139.5q0 -93 10.5 -137.5t35.5 -44.5q24 0 35 43zM326 741
l-138 -8l-100 110l167 34z" />
    <glyph glyph-name="Oacute" unicode="&#xd3;" horiz-adv-x="516" 
d="M84.5 79.5q-62.5 92.5 -62.5 269.5q0 172 60 268t176 96q110 0 173 -92.5t63 -269.5q0 -172 -60.5 -268t-175.5 -96q-111 0 -173.5 92.5zM293 211q11 43 11 138q0 97 -10.5 140t-35.5 43q-24 0 -35 -42.5t-11 -139.5q0 -93 10.5 -137.5t35.5 -44.5q24 0 35 43zM427 845
l-100 -110l-138 7l71 137z" />
    <glyph glyph-name="Ocircumflex" unicode="&#xd4;" horiz-adv-x="516" 
d="M84.5 79.5q-62.5 92.5 -62.5 269.5q0 172 60 268t176 96q110 0 173 -92.5t63 -269.5q0 -172 -60.5 -268t-175.5 -96q-111 0 -173.5 92.5zM293 211q11 43 11 138q0 97 -10.5 140t-35.5 43q-24 0 -35 -42.5t-11 -139.5q0 -93 10.5 -137.5t35.5 -44.5q24 0 35 43zM346 873
l57 -126l-127 -8l-18 51l-19 -51l-127 8l56 126h178z" />
    <glyph glyph-name="Otilde" unicode="&#xd5;" horiz-adv-x="516" 
d="M84.5 79.5q-62.5 92.5 -62.5 269.5q0 172 60 268t176 96q110 0 173 -92.5t63 -269.5q0 -172 -60.5 -268t-175.5 -96q-111 0 -173.5 92.5zM293 211q11 43 11 138q0 97 -10.5 140t-35.5 43q-24 0 -35 -42.5t-11 -139.5q0 -93 10.5 -137.5t35.5 -44.5q24 0 35 43zM137 753
q-2 59 15.5 91.5t53.5 32.5q22 0 50 -15q16 -9 24 -9q16 0 16 28l82 -16q2 -60 -15.5 -92t-52.5 -32q-23 0 -51 15q-18 9 -25 9t-11 -7t-3 -21z" />
    <glyph glyph-name="Odieresis" unicode="&#xd6;" horiz-adv-x="516" 
d="M84.5 79.5q-62.5 92.5 -62.5 269.5q0 172 60 268t176 96q110 0 173 -92.5t63 -269.5q0 -172 -60.5 -268t-175.5 -96q-111 0 -173.5 92.5zM293 211q11 43 11 138q0 97 -10.5 140t-35.5 43q-24 0 -35 -42.5t-11 -139.5q0 -93 10.5 -137.5t35.5 -44.5q24 0 35 43zM241 739
h-128v131h128v-131zM403 739h-128v131h128v-131z" />
    <glyph glyph-name="multiply" unicode="&#xd7;" horiz-adv-x="333" 
d="M215 476l108 -108l-54 -54l49 -48l-98 -97l-48 48l-54 -54l-108 108l54 54l-49 48l98 97l48 -48z" />
    <glyph glyph-name="Oslash" unicode="&#xd8;" horiz-adv-x="516" 
d="M428 625q66 -96 66 -274q0 -172 -60.5 -268t-175.5 -96q-64 0 -113 31l-16 -35l-70 34l28 59q-65 94 -65 273q0 172 60 268t176 96q63 0 111 -30l16 34l71 -33zM212 346l75 161q-10 25 -29 25q-24 0 -35 -42.5t-11 -139.5v-4zM293 211q11 43 11 138v9l-76 -163
q11 -27 30 -27q24 0 35 43z" />
    <glyph glyph-name="Ugrave" unicode="&#xd9;" horiz-adv-x="491" 
d="M87.5 43q-57.5 57 -57.5 154v503h186v-501q0 -46 30 -46q29 0 29 46v501h186v-503q0 -97 -58 -154t-158 -57t-157.5 57zM315 741l-138 -8l-100 110l167 34z" />
    <glyph glyph-name="Uacute" unicode="&#xda;" horiz-adv-x="491" 
d="M87.5 43q-57.5 57 -57.5 154v503h186v-501q0 -46 30 -46q29 0 29 46v501h186v-503q0 -97 -58 -154t-158 -57t-157.5 57zM416 845l-100 -110l-138 7l71 137z" />
    <glyph glyph-name="Ucircumflex" unicode="&#xdb;" horiz-adv-x="491" 
d="M87.5 43q-57.5 57 -57.5 154v503h186v-501q0 -46 30 -46q29 0 29 46v501h186v-503q0 -97 -58 -154t-158 -57t-157.5 57zM335 873l57 -126l-127 -8l-18 51l-19 -51l-127 8l56 126h178z" />
    <glyph glyph-name="Udieresis" unicode="&#xdc;" horiz-adv-x="491" 
d="M87.5 43q-57.5 57 -57.5 154v503h186v-501q0 -46 30 -46q29 0 29 46v501h186v-503q0 -97 -58 -154t-158 -57t-157.5 57zM229 739h-128v131h128v-131zM391 739h-128v131h128v-131z" />
    <glyph glyph-name="Yacute" unicode="&#xdd;" horiz-adv-x="450" 
d="M258 700h192l-132 -500v-200h-186v197l-132 503h192l35 -293zM395 845l-100 -110l-138 7l71 137z" />
    <glyph glyph-name="Thorn" unicode="&#xde;" horiz-adv-x="486" 
d="M240 612q107 0 169 -66.5t62 -192.5q0 -122 -59.5 -192.5t-171.5 -70.5h-19v-90h-186v700h186v-88h19zM236 253q25 0 39 25.5t14 73.5q0 44 -14 70.5t-39 26.5h-15v-196h15z" />
    <glyph glyph-name="germandbls" unicode="&#xdf;" horiz-adv-x="490" 
d="M450.5 319q28.5 -47 28.5 -117q0 -65 -22.5 -113t-61.5 -74t-87 -26q-39 0 -80 18l8 154q20 -6 26 -6q19 0 27.5 18t8.5 56q0 33 -11 52t-31 21q-13 0 -19 -1v123q40 13 40 94q0 72 -31 72q-35 0 -35 -80v-503l-178 -7v511q0 109 55.5 174.5t158.5 65.5q97 0 153 -58
t56 -159q0 -51 -22.5 -92t-53.5 -62q42 -14 70.5 -61z" />
    <glyph glyph-name="agrave" unicode="&#xe0;" horiz-adv-x="446" 
d="M366 510q52 -61 52 -165v-345h-177v71q-17 -42 -44 -63t-59 -21q-127 0 -127 179q0 81 39 124.5t118 43.5q29 0 73 -4v14q0 38 -14.5 56.5t-48.5 18.5q-23 0 -53.5 -7t-55.5 -17l-16 149q37 13 71.5 20t81.5 7q108 0 160 -61zM241 237v6q-12 2 -23 2q-17 0 -25.5 -14.5
t-8.5 -42.5q0 -27 6.5 -43t18.5 -16q32 0 32 108zM276 610l-107 -8l-98 142l145 20z" />
    <glyph glyph-name="aacute" unicode="&#xe1;" horiz-adv-x="446" 
d="M366 510q52 -61 52 -165v-345h-177v71q-17 -42 -44 -63t-59 -21q-127 0 -127 179q0 81 39 124.5t118 43.5q29 0 73 -4v14q0 38 -14.5 56.5t-48.5 18.5q-23 0 -53.5 -7t-55.5 -17l-16 149q37 13 71.5 20t81.5 7q108 0 160 -61zM241 237v6q-12 2 -23 2q-17 0 -25.5 -14.5
t-8.5 -42.5q0 -27 6.5 -43t18.5 -16q32 0 32 108zM360 744l-97 -142l-108 8l61 154z" />
    <glyph glyph-name="acircumflex" unicode="&#xe2;" horiz-adv-x="446" 
d="M366 510q52 -61 52 -165v-345h-177v71q-17 -42 -44 -63t-59 -21q-127 0 -127 179q0 81 39 124.5t118 43.5q29 0 73 -4v14q0 38 -14.5 56.5t-48.5 18.5q-23 0 -53.5 -7t-55.5 -17l-16 149q37 13 71.5 20t81.5 7q108 0 160 -61zM241 237v6q-12 2 -23 2q-17 0 -25.5 -14.5
t-8.5 -42.5q0 -27 6.5 -43t18.5 -16q32 0 32 108zM307 750l55 -140l-123 -9l-19 57l-18 -57l-123 9l54 140h174z" />
    <glyph glyph-name="atilde" unicode="&#xe3;" horiz-adv-x="446" 
d="M366 510q52 -61 52 -165v-345h-177v71q-17 -42 -44 -63t-59 -21q-127 0 -127 179q0 81 39 124.5t118 43.5q29 0 73 -4v14q0 38 -14.5 56.5t-48.5 18.5q-23 0 -53.5 -7t-55.5 -17l-16 149q37 13 71.5 20t81.5 7q108 0 160 -61zM241 237v6q-12 2 -23 2q-17 0 -25.5 -14.5
t-8.5 -42.5q0 -27 6.5 -43t18.5 -16q32 0 32 108zM99 619q-2 59 15.5 91.5t53.5 32.5q22 0 50 -15q16 -9 24 -9q16 0 16 28l82 -16q2 -60 -15.5 -92t-52.5 -32q-23 0 -51 15q-18 9 -25 9t-11 -7t-3 -21z" />
    <glyph glyph-name="adieresis" unicode="&#xe4;" horiz-adv-x="446" 
d="M366 510q52 -61 52 -165v-345h-177v71q-17 -42 -44 -63t-59 -21q-127 0 -127 179q0 81 39 124.5t118 43.5q29 0 73 -4v14q0 38 -14.5 56.5t-48.5 18.5q-23 0 -53.5 -7t-55.5 -17l-16 149q37 13 71.5 20t81.5 7q108 0 160 -61zM241 237v6q-12 2 -23 2q-17 0 -25.5 -14.5
t-8.5 -42.5q0 -27 6.5 -43t18.5 -16q32 0 32 108zM198 603h-125v136h125v-136zM366 603h-125v136h125v-136z" />
    <glyph glyph-name="aring" unicode="&#xe5;" horiz-adv-x="446" 
d="M366 510q52 -61 52 -165v-345h-177v71q-17 -42 -44 -63t-59 -21q-127 0 -127 179q0 81 39 124.5t118 43.5q29 0 73 -4v14q0 38 -14.5 56.5t-48.5 18.5q-23 0 -53.5 -7t-55.5 -17l-16 149q37 13 71.5 20t81.5 7q108 0 160 -61zM241 237v6q-12 2 -23 2q-17 0 -25.5 -14.5
t-8.5 -42.5q0 -27 6.5 -43t18.5 -16q32 0 32 108zM138.5 622.5q-32.5 31.5 -32.5 78.5t32.5 78t80.5 31q49 0 81.5 -31t32.5 -78t-32.5 -78.5t-81.5 -31.5q-48 0 -80.5 31.5zM240 677.5q8 9.5 8 23.5t-8 23.5t-21 9.5q-12 0 -20 -9.5t-8 -23.5t8 -23.5t20 -9.5q13 0 21 9.5z
" />
    <glyph glyph-name="ae" unicode="&#xe6;" horiz-adv-x="670" 
d="M423 230q5 -50 19 -71.5t44 -21.5q55 0 106 27l27 -141q-27 -16 -68.5 -26t-83.5 -10q-54 0 -96 21t-71 61q-53 -82 -149 -82q-65 0 -100 47.5t-35 129.5q0 170 172 170q29 0 56 -3v6q0 41 -14.5 61.5t-48.5 20.5q-45 0 -104 -25l-27 149q41 13 76.5 20t79.5 7
q84 0 126 -45q54 45 134 45q92 0 140 -67t48 -182q0 -39 -14 -91h-217zM487 324q1 51 -6.5 75t-24.5 24t-24.5 -24t-9.5 -75h65zM237 149q11 20 13 59q-2 12 -4 36q-8 1 -25 1q-33 0 -33 -56q0 -60 25 -60q13 0 24 20z" />
    <glyph glyph-name="ccedilla" unicode="&#xe7;" horiz-adv-x="341" 
d="M251 -29q37 -5 59.5 -24t22.5 -48q0 -39 -37.5 -60t-100.5 -21q-44 0 -74 6l15 70q22 -4 37 -4q32 0 32 18q0 19 -33 19q-13 0 -21 -1l19 71q-76 24 -115 97.5t-39 184.5q0 136 59 213.5t170 77.5q38 0 88 -14l-23 -160q-28 12 -50 12q-30 0 -47 -33t-17 -95
q0 -63 16.5 -96.5t46.5 -33.5q27 0 51 11l24 -160q-36 -11 -78 -15z" />
    <glyph glyph-name="egrave" unicode="&#xe8;" horiz-adv-x="441" 
d="M194 230q5 -50 19 -71.5t44 -21.5q55 0 106 27l27 -141q-27 -16 -68.5 -26t-83.5 -10q-105 0 -163.5 77.5t-58.5 215.5q0 134 56.5 212t164.5 78q92 0 140 -67t48 -182q0 -39 -14 -91h-217zM258 324q1 51 -6.5 75t-24.5 24t-24.5 -24t-9.5 -75h65zM282 609l-107 -8
l-98 142l145 20z" />
    <glyph glyph-name="eacute" unicode="&#xe9;" horiz-adv-x="441" 
d="M194 230q5 -50 19 -71.5t44 -21.5q55 0 106 27l27 -141q-27 -16 -68.5 -26t-83.5 -10q-105 0 -163.5 77.5t-58.5 215.5q0 134 56.5 212t164.5 78q92 0 140 -67t48 -182q0 -39 -14 -91h-217zM258 324q1 51 -6.5 75t-24.5 24t-24.5 -24t-9.5 -75h65zM366 743l-97 -142
l-108 8l61 154z" />
    <glyph glyph-name="ecircumflex" unicode="&#xea;" horiz-adv-x="441" 
d="M194 230q5 -50 19 -71.5t44 -21.5q55 0 106 27l27 -141q-27 -16 -68.5 -26t-83.5 -10q-105 0 -163.5 77.5t-58.5 215.5q0 134 56.5 212t164.5 78q92 0 140 -67t48 -182q0 -39 -14 -91h-217zM258 324q1 51 -6.5 75t-24.5 24t-24.5 -24t-9.5 -75h65zM313 749l55 -140
l-123 -9l-19 57l-18 -57l-123 9l54 140h174z" />
    <glyph glyph-name="edieresis" unicode="&#xeb;" horiz-adv-x="441" 
d="M194 230q5 -50 19 -71.5t44 -21.5q55 0 106 27l27 -141q-27 -16 -68.5 -26t-83.5 -10q-105 0 -163.5 77.5t-58.5 215.5q0 134 56.5 212t164.5 78q92 0 140 -67t48 -182q0 -39 -14 -91h-217zM258 324q1 51 -6.5 75t-24.5 24t-24.5 -24t-9.5 -75h65zM204 602h-125v136h125
v-136zM372 602h-125v136h125v-136z" />
    <glyph glyph-name="igrave" unicode="&#xec;" horiz-adv-x="240" 
d="M209 0h-178v557h178v-557zM176 609l-107 -8l-98 142l145 20z" />
    <glyph glyph-name="iacute" unicode="&#xed;" horiz-adv-x="240" 
d="M209 0h-178v557h178v-557zM260 743l-97 -142l-108 8l61 154z" />
    <glyph glyph-name="icircumflex" unicode="&#xee;" horiz-adv-x="240" 
d="M209 0h-178v557h178v-557zM208 749l55 -140l-123 -9l-19 57l-18 -57l-123 9l54 140h174z" />
    <glyph glyph-name="idieresis" unicode="&#xef;" horiz-adv-x="240" 
d="M209 0h-178v557h178v-557zM99 602h-125v136h125v-136zM267 602h-125v136h125v-136z" />
    <glyph glyph-name="eth" unicode="&#xf0;" horiz-adv-x="463" 
d="M359 634q38 -55 59.5 -131t21.5 -167q0 -176 -52 -263t-166 -87q-97 0 -151.5 65t-54.5 185q0 108 47.5 175.5t132.5 67.5q28 0 51 -15q-12 52 -30 83l-53 -32l-36 60l42 26q-24 17 -51 26l77 116q63 -9 115 -55l38 24l37 -61zM245.5 149.5q7.5 20.5 11.5 78.5
q-2 52 -11 76.5t-21 24.5t-20 -24.5t-8 -77.5q0 -98 28 -98q13 0 20.5 20.5z" />
    <glyph glyph-name="ntilde" unicode="&#xf1;" horiz-adv-x="468" 
d="M410 523.5q30 -46.5 30 -141.5v-382h-178v348q0 54 -23 54q-8 0 -16.5 -8.5t-14.5 -24.5v-369h-177v557h177v-64q18 36 47 56.5t68 20.5q57 0 87 -46.5zM116 618q-2 59 15.5 91.5t53.5 32.5q22 0 50 -15q16 -9 24 -9q16 0 16 28l82 -16q2 -60 -15.5 -92t-52.5 -32
q-23 0 -51 15q-18 9 -25 9t-11 -7t-3 -21z" />
    <glyph glyph-name="ograve" unicode="&#xf2;" horiz-adv-x="464" 
d="M73.5 62q-57.5 76 -57.5 218q0 136 56 213.5t161 77.5q101 0 158 -75t57 -215q0 -138 -55.5 -216.5t-160.5 -78.5q-101 0 -158.5 76zM258 182.5q8 30.5 8 97.5q0 66 -8 96t-26 30q-19 0 -27 -29.5t-8 -95.5q0 -68 8.5 -98.5t27.5 -30.5q17 0 25 30.5zM289 609l-107 -8
l-98 142l145 20z" />
    <glyph glyph-name="oacute" unicode="&#xf3;" horiz-adv-x="464" 
d="M73.5 62q-57.5 76 -57.5 218q0 136 56 213.5t161 77.5q101 0 158 -75t57 -215q0 -138 -55.5 -216.5t-160.5 -78.5q-101 0 -158.5 76zM258 182.5q8 30.5 8 97.5q0 66 -8 96t-26 30q-19 0 -27 -29.5t-8 -95.5q0 -68 8.5 -98.5t27.5 -30.5q17 0 25 30.5zM373 743l-97 -142
l-108 8l61 154z" />
    <glyph glyph-name="ocircumflex" unicode="&#xf4;" horiz-adv-x="464" 
d="M73.5 62q-57.5 76 -57.5 218q0 136 56 213.5t161 77.5q101 0 158 -75t57 -215q0 -138 -55.5 -216.5t-160.5 -78.5q-101 0 -158.5 76zM258 182.5q8 30.5 8 97.5q0 66 -8 96t-26 30q-19 0 -27 -29.5t-8 -95.5q0 -68 8.5 -98.5t27.5 -30.5q17 0 25 30.5zM320 749l55 -140
l-123 -9l-19 57l-18 -57l-123 9l54 140h174z" />
    <glyph glyph-name="otilde" unicode="&#xf5;" horiz-adv-x="464" 
d="M73.5 62q-57.5 76 -57.5 218q0 136 56 213.5t161 77.5q101 0 158 -75t57 -215q0 -138 -55.5 -216.5t-160.5 -78.5q-101 0 -158.5 76zM258 182.5q8 30.5 8 97.5q0 66 -8 96t-26 30q-19 0 -27 -29.5t-8 -95.5q0 -68 8.5 -98.5t27.5 -30.5q17 0 25 30.5zM112 618
q-2 59 15.5 91.5t53.5 32.5q22 0 50 -15q16 -9 24 -9q16 0 16 28l82 -16q2 -60 -15.5 -92t-52.5 -32q-23 0 -51 15q-18 9 -25 9t-11 -7t-3 -21z" />
    <glyph glyph-name="odieresis" unicode="&#xf6;" horiz-adv-x="464" 
d="M73.5 62q-57.5 76 -57.5 218q0 136 56 213.5t161 77.5q101 0 158 -75t57 -215q0 -138 -55.5 -216.5t-160.5 -78.5q-101 0 -158.5 76zM258 182.5q8 30.5 8 97.5q0 66 -8 96t-26 30q-19 0 -27 -29.5t-8 -95.5q0 -68 8.5 -98.5t27.5 -30.5q17 0 25 30.5zM211 602h-125v136
h125v-136zM379 602h-125v136h125v-136z" />
    <glyph glyph-name="divide" unicode="&#xf7;" horiz-adv-x="313" 
d="M234 588v-147h-156v147h156zM302 405v-135h-292v135h292zM78 87v147h156v-147h-156z" />
    <glyph glyph-name="oslash" unicode="&#xf8;" horiz-adv-x="464" 
d="M406 474q42 -75 42 -193q0 -138 -55.5 -216.5t-160.5 -78.5q-74 0 -123 40l-29 -44l-64 44l41 62q-41 73 -41 192q0 136 56 213.5t161 77.5q70 0 119 -36l29 44l65 -44zM207 381q-8 -25 -10 -80l57 86q-7 19 -22 19q-17 0 -25 -25zM257 178.5q8 26.5 9 84.5l-58 -88
q7 -23 25 -23q16 0 24 26.5z" />
    <glyph glyph-name="ugrave" unicode="&#xf9;" horiz-adv-x="469" 
d="M260 557h177v-557h-177v64q-18 -36 -47 -56.5t-68 -20.5q-57 0 -87 46.5t-30 141.5v382h178v-348q0 -54 23 -54q8 0 16.5 8.5t14.5 24.5v369zM285 609l-107 -8l-98 142l145 20z" />
    <glyph glyph-name="uacute" unicode="&#xfa;" horiz-adv-x="469" 
d="M260 557h177v-557h-177v64q-18 -36 -47 -56.5t-68 -20.5q-57 0 -87 46.5t-30 141.5v382h178v-348q0 -54 23 -54q8 0 16.5 8.5t14.5 24.5v369zM369 743l-97 -142l-108 8l61 154z" />
    <glyph glyph-name="ucircumflex" unicode="&#xfb;" horiz-adv-x="469" 
d="M260 557h177v-557h-177v64q-18 -36 -47 -56.5t-68 -20.5q-57 0 -87 46.5t-30 141.5v382h178v-348q0 -54 23 -54q8 0 16.5 8.5t14.5 24.5v369zM317 749l55 -140l-123 -9l-19 57l-18 -57l-123 9l54 140h174z" />
    <glyph glyph-name="udieresis" unicode="&#xfc;" horiz-adv-x="469" 
d="M260 557h177v-557h-177v64q-18 -36 -47 -56.5t-68 -20.5q-57 0 -87 46.5t-30 141.5v382h178v-348q0 -54 23 -54q8 0 16.5 8.5t14.5 24.5v369zM208 602h-125v136h125v-136zM376 602h-125v136h125v-136z" />
    <glyph glyph-name="yacute" unicode="&#xfd;" horiz-adv-x="455" 
d="M229 187l40 370h182l-117 -557l-36 -171h-178l32 164l-28 -1l-120 565h181l41 -370h3zM368 740l-97 -142l-108 8l61 154z" />
    <glyph glyph-name="thorn" unicode="&#xfe;" horiz-adv-x="481" 
d="M33 -172v910h178v-221q42 53 98 53q73 0 114.5 -77.5t41.5 -216.5q0 -137 -42 -213t-116 -76q-57 0 -96 53v-212h-178zM273.5 181.5q8.5 32.5 8.5 94.5q0 131 -34 131q-17 0 -27 -36t-10 -94t10 -93t27 -35t25.5 32.5z" />
    <glyph glyph-name="ydieresis" unicode="&#xff;" horiz-adv-x="455" 
d="M229 187l40 370h182l-117 -557l-36 -171h-178l32 164l-28 -1l-120 565h181l41 -370h3zM207 599h-125v136h125v-136zM375 599h-125v136h125v-136z" />
    <glyph glyph-name="Amacron" unicode="&#x100;" horiz-adv-x="488" 
d="M486 0h-188l-12 108h-86l-12 -108h-187l117 700h253zM241 484l-28 -254h60l-27 254h-5zM384 748h-280v99h280v-99z" />
    <glyph glyph-name="amacron" unicode="&#x101;" horiz-adv-x="446" 
d="M366 510q52 -61 52 -165v-345h-177v71q-17 -42 -44 -63t-59 -21q-127 0 -127 179q0 81 39 124.5t118 43.5q29 0 73 -4v14q0 38 -14.5 56.5t-48.5 18.5q-23 0 -53.5 -7t-55.5 -17l-16 149q37 13 71.5 20t81.5 7q108 0 160 -61zM241 237v6q-12 2 -23 2q-17 0 -25.5 -14.5
t-8.5 -42.5q0 -27 6.5 -43t18.5 -16q32 0 32 108zM360 617h-280v99h280v-99z" />
    <glyph glyph-name="Abreve" unicode="&#x102;" horiz-adv-x="488" 
d="M486 0h-188l-12 108h-86l-12 -108h-187l117 700h253zM241 484l-28 -254h60l-27 254h-5zM386 875q0 -73 -36 -107.5t-107 -34.5t-106.5 34t-35.5 108l116 3q0 -24 6 -35.5t20 -11.5q28 0 28 47z" />
    <glyph glyph-name="abreve" unicode="&#x103;" horiz-adv-x="446" 
d="M366 510q52 -61 52 -165v-345h-177v71q-17 -42 -44 -63t-59 -21q-127 0 -127 179q0 81 39 124.5t118 43.5q29 0 73 -4v14q0 38 -14.5 56.5t-48.5 18.5q-23 0 -53.5 -7t-55.5 -17l-16 149q37 13 71.5 20t81.5 7q108 0 160 -61zM241 237v6q-12 2 -23 2q-17 0 -25.5 -14.5
t-8.5 -42.5q0 -27 6.5 -43t18.5 -16q32 0 32 108zM363 741q0 -73 -36 -107.5t-107 -34.5t-106.5 34t-35.5 108l116 3q0 -24 6 -35.5t20 -11.5q28 0 28 47z" />
    <glyph glyph-name="Aogonek" unicode="&#x104;" horiz-adv-x="488" 
d="M512 -195q-50 -14 -93 -14q-57 0 -87 26t-30 70q0 33 18.5 62.5t46.5 50.5h-69l-12 108h-86l-12 -108h-187l117 700h253l115 -700q-36 -35 -36 -66q0 -30 35 -30q5 0 17 2zM241 484l-28 -254h60l-27 254h-5z" />
    <glyph glyph-name="aogonek" unicode="&#x105;" horiz-adv-x="446" 
d="M443 -195q-50 -14 -93 -14q-57 0 -87 26t-30 70q0 33 18.5 62.5t46.5 50.5h-57v71q-17 -42 -44 -63t-59 -21q-127 0 -127 179q0 81 39 124.5t118 43.5q29 0 73 -4v14q0 38 -14.5 56.5t-48.5 18.5q-23 0 -53.5 -7t-55.5 -17l-16 149q37 13 71.5 20t81.5 7q108 0 160 -61
t52 -165v-345h-1q-36 -35 -36 -66q0 -30 35 -30q5 0 17 2zM241 237v6q-12 2 -23 2q-17 0 -25.5 -14.5t-8.5 -42.5q0 -27 6.5 -43t18.5 -16q32 0 32 108z" />
    <glyph glyph-name="Cacute" unicode="&#x106;" horiz-adv-x="399" 
d="M89.5 79q-67.5 93 -67.5 270q0 176 65 270t189 94q44 0 109 -21l-24 -174q-19 8 -34 11t-33 3q-39 0 -58.5 -41.5t-19.5 -140.5q0 -97 19 -140t59 -43q38 0 69 14l26 -173q-19 -8 -51.5 -15t-59.5 -7q-121 0 -188.5 93zM435 845l-100 -110l-138 7l71 137z" />
    <glyph glyph-name="cacute" unicode="&#x107;" horiz-adv-x="341" 
d="M75 64q-59 78 -59 215q0 136 59 213.5t170 77.5q38 0 88 -14l-23 -160q-28 12 -50 12q-30 0 -47 -33t-17 -95q0 -63 16.5 -96.5t46.5 -33.5q27 0 51 11l24 -160q-50 -15 -88 -15q-112 0 -171 78zM363 743l-97 -142l-108 8l61 154z" />
    <glyph glyph-name="Ccircumflex" unicode="&#x108;" horiz-adv-x="399" 
d="M89.5 79q-67.5 93 -67.5 270q0 176 65 270t189 94q44 0 109 -21l-24 -174q-19 8 -34 11t-33 3q-39 0 -58.5 -41.5t-19.5 -140.5q0 -97 19 -140t59 -43q38 0 69 14l26 -173q-19 -8 -51.5 -15t-59.5 -7q-121 0 -188.5 93zM354 873l57 -126l-127 -8l-18 51l-19 -51l-127 8
l56 126h178z" />
    <glyph glyph-name="ccircumflex" unicode="&#x109;" horiz-adv-x="341" 
d="M75 64q-59 78 -59 215q0 136 59 213.5t170 77.5q38 0 88 -14l-23 -160q-28 12 -50 12q-30 0 -47 -33t-17 -95q0 -63 16.5 -96.5t46.5 -33.5q27 0 51 11l24 -160q-50 -15 -88 -15q-112 0 -171 78zM310 749l55 -140l-123 -9l-19 57l-18 -57l-123 9l54 140h174z" />
    <glyph glyph-name="Cdotaccent" unicode="&#x10a;" horiz-adv-x="399" 
d="M89.5 79q-67.5 93 -67.5 270q0 176 65 270t189 94q44 0 109 -21l-24 -174q-19 8 -34 11t-33 3q-39 0 -58.5 -41.5t-19.5 -140.5q0 -97 19 -140t59 -43q38 0 69 14l26 -173q-19 -8 -51.5 -15t-59.5 -7q-121 0 -188.5 93zM356 739h-184v132h184v-132z" />
    <glyph glyph-name="cdotaccent" unicode="&#x10b;" horiz-adv-x="341" 
d="M75 64q-59 78 -59 215q0 136 59 213.5t170 77.5q38 0 88 -14l-23 -160q-28 12 -50 12q-30 0 -47 -33t-17 -95q0 -63 16.5 -96.5t46.5 -33.5q27 0 51 11l24 -160q-50 -15 -88 -15q-112 0 -171 78zM314 602h-184v136h184v-136z" />
    <glyph glyph-name="Ccaron" unicode="&#x10c;" horiz-adv-x="399" 
d="M89.5 79q-67.5 93 -67.5 270q0 176 65 270t189 94q44 0 109 -21l-24 -174q-19 8 -34 11t-33 3q-39 0 -58.5 -41.5t-19.5 -140.5q0 -97 19 -140t59 -43q38 0 69 14l26 -173q-19 -8 -51.5 -15t-59.5 -7q-121 0 -188.5 93zM265 830l19 51l126 -7l-56 -127h-178l-55 127
l126 7z" />
    <glyph glyph-name="ccaron" unicode="&#x10d;" horiz-adv-x="341" 
d="M75 64q-59 78 -59 215q0 136 59 213.5t170 77.5q38 0 88 -14l-23 -160q-28 12 -50 12q-30 0 -47 -33t-17 -95q0 -63 16.5 -96.5t46.5 -33.5q27 0 51 11l24 -160q-50 -15 -88 -15q-112 0 -171 78zM223 691l19 54l123 -9l-55 -133h-174l-54 133l123 9z" />
    <glyph glyph-name="Dcaron" unicode="&#x10e;" horiz-adv-x="518" 
d="M35 0v700h210q120 0 185.5 -91.5t65.5 -256.5q0 -167 -65.5 -259.5t-185.5 -92.5h-210zM237 175q36 0 52 40.5t16 135.5q0 93 -16 133.5t-52 40.5h-16v-350h16zM224 830l19 51l126 -7l-56 -127h-178l-55 127l126 7z" />
    <glyph glyph-name="dcaron" unicode="&#x10f;" horiz-adv-x="482" 
d="M58 64.5q-41 77.5 -41 216.5q0 137 42 213t116 76q57 0 95 -53v221h179v-738h-179v40q-40 -53 -97 -53q-74 0 -115 77.5zM472 555v183h102l-23 -183h-79zM260 185.5q10 34.5 10 91.5q0 60 -9.5 95.5t-26.5 35.5t-25.5 -32.5t-8.5 -94.5q0 -130 34 -130q16 0 26 34.5z" />
    <glyph glyph-name="Dcroat" unicode="&#x110;" horiz-adv-x="518" 
d="M245 700q120 0 185.5 -91.5t65.5 -256.5q0 -167 -65.5 -259.5t-185.5 -92.5h-210v315h-28v75h28v310h210zM237 175q36 0 52 40.5t16 135.5q0 93 -16 133.5t-52 40.5h-16v-135h58v-75h-58v-140h16z" />
    <glyph glyph-name="dcroat" unicode="&#x111;" horiz-adv-x="482" 
d="M490 683v-75h-41v-608h-179v40q-40 -53 -97 -53q-74 0 -115 77.5t-41 216.5q0 137 42 213t116 76q57 0 95 -53v91h-54v74h54v56h179v-55h41zM260 185.5q10 34.5 10 91.5q0 60 -9.5 95.5t-26.5 35.5t-25.5 -32.5t-8.5 -94.5q0 -130 34 -130q16 0 26 34.5z" />
    <glyph glyph-name="Emacron" unicode="&#x112;" horiz-adv-x="392" 
d="M221 271v-101h156v-170h-342v700h337v-170h-151v-99h124v-160h-124zM347 748h-280v99h280v-99z" />
    <glyph glyph-name="emacron" unicode="&#x113;" horiz-adv-x="441" 
d="M194 230q5 -50 19 -71.5t44 -21.5q55 0 106 27l27 -141q-27 -16 -68.5 -26t-83.5 -10q-105 0 -163.5 77.5t-58.5 215.5q0 134 56.5 212t164.5 78q92 0 140 -67t48 -182q0 -39 -14 -91h-217zM258 324q1 51 -6.5 75t-24.5 24t-24.5 -24t-9.5 -75h65zM366 616h-280v99h280
v-99z" />
    <glyph glyph-name="Ebreve" unicode="&#x114;" horiz-adv-x="392" 
d="M221 271v-101h156v-170h-342v700h337v-170h-151v-99h124v-160h-124zM349 875q0 -73 -36 -107.5t-107 -34.5t-106.5 34t-35.5 108l116 3q0 -24 6 -35.5t20 -11.5q28 0 28 47z" />
    <glyph glyph-name="ebreve" unicode="&#x115;" horiz-adv-x="441" 
d="M194 230q5 -50 19 -71.5t44 -21.5q55 0 106 27l27 -141q-27 -16 -68.5 -26t-83.5 -10q-105 0 -163.5 77.5t-58.5 215.5q0 134 56.5 212t164.5 78q92 0 140 -67t48 -182q0 -39 -14 -91h-217zM258 324q1 51 -6.5 75t-24.5 24t-24.5 -24t-9.5 -75h65zM368 740
q0 -73 -36 -107.5t-107 -34.5t-106.5 34t-35.5 108l116 3q0 -24 6 -35.5t20 -11.5q28 0 28 47z" />
    <glyph glyph-name="Edotaccent" unicode="&#x116;" horiz-adv-x="392" 
d="M221 271v-101h156v-170h-342v700h337v-170h-151v-99h124v-160h-124zM298 739h-184v132h184v-132z" />
    <glyph glyph-name="edotaccent" unicode="&#x117;" horiz-adv-x="441" 
d="M194 230q5 -50 19 -71.5t44 -21.5q55 0 106 27l27 -141q-27 -16 -68.5 -26t-83.5 -10q-105 0 -163.5 77.5t-58.5 215.5q0 134 56.5 212t164.5 78q92 0 140 -67t48 -182q0 -39 -14 -91h-217zM258 324q1 51 -6.5 75t-24.5 24t-24.5 -24t-9.5 -75h65zM316 602h-184v136h184
v-136z" />
    <glyph glyph-name="Eogonek" unicode="&#x118;" horiz-adv-x="392" 
d="M403 -195q-50 -14 -93 -14q-57 0 -87 26t-30 70q0 33 18.5 62.5t46.5 50.5h-223v700h337v-170h-151v-99h124v-160h-124v-101h156v-170q-36 -35 -36 -66q0 -30 35 -30q5 0 17 2z" />
    <glyph glyph-name="eogonek" unicode="&#x119;" horiz-adv-x="441" 
d="M388 -73q5 0 17 2l10 -101q-50 -14 -93 -14q-57 0 -87 26t-30 70q0 39 29 77q-103 1 -160.5 79t-57.5 214q0 134 56.5 212t164.5 78q92 0 140 -67t48 -182q0 -39 -14 -91h-217q5 -50 19 -71.5t44 -21.5q55 0 106 27l27 -141l-3 -2q-34 -34 -34 -64t35 -30zM202.5 399
q-7.5 -24 -9.5 -75h65q1 51 -6.5 75t-24.5 24t-24.5 -24z" />
    <glyph glyph-name="Ecaron" unicode="&#x11a;" horiz-adv-x="392" 
d="M221 271v-101h156v-170h-342v700h337v-170h-151v-99h124v-160h-124zM207 830l19 51l126 -7l-56 -127h-178l-55 127l126 7z" />
    <glyph glyph-name="ecaron" unicode="&#x11b;" horiz-adv-x="441" 
d="M194 230q5 -50 19 -71.5t44 -21.5q55 0 106 27l27 -141q-27 -16 -68.5 -26t-83.5 -10q-105 0 -163.5 77.5t-58.5 215.5q0 134 56.5 212t164.5 78q92 0 140 -67t48 -182q0 -39 -14 -91h-217zM258 324q1 51 -6.5 75t-24.5 24t-24.5 -24t-9.5 -75h65zM226 691l19 54l123 -9
l-55 -133h-174l-54 133l123 9z" />
    <glyph glyph-name="Gcircumflex" unicode="&#x11c;" horiz-adv-x="480" 
d="M263 396h192v-347q-46 -31 -89 -47t-101 -16q-120 0 -181.5 91t-61.5 272q0 177 66.5 270.5t189.5 93.5q66 0 131 -23l-25 -179q-22 11 -45 17t-40 6q-48 0 -69 -44t-21 -142q0 -192 58 -192q12 0 28 7v86h-32v147zM364 873l57 -126l-127 -8l-18 51l-19 -51l-127 8
l56 126h178z" />
    <glyph glyph-name="gcircumflex" unicode="&#x11d;" horiz-adv-x="445" 
d="M271 149q86 0 133 -38.5t47 -113.5q0 -85 -62 -133t-177 -48q-187 0 -187 141q0 29 15.5 54t39.5 44q-55 21 -55 88q0 28 15 52.5t38 42.5q-55 50 -55 144q0 86 55 137.5t148 51.5q54 0 88 -17l99 38l30 -116l-44 -9q29 -41 29 -85q0 -90 -51.5 -141.5t-149.5 -51.5
q-12 0 -32 2q-8 -11 -8 -20q0 -11 10.5 -16.5t23.5 -5.5h50zM207.5 428.5q-6.5 -16.5 -6.5 -45.5q0 -68 25 -68q12 0 18 18t6 49q0 29 -6 46t-18 17t-18.5 -16.5zM253.5 -43q9.5 14 9.5 40q0 47 -38 47h-12q-14 -22 -14 -49q0 -52 30 -52q15 0 24.5 14zM312 758l55 -140
l-123 -9l-19 57l-18 -57l-123 9l54 140h174z" />
    <glyph glyph-name="Gbreve" unicode="&#x11e;" horiz-adv-x="480" 
d="M263 396h192v-347q-46 -31 -89 -47t-101 -16q-120 0 -181.5 91t-61.5 272q0 177 66.5 270.5t189.5 93.5q66 0 131 -23l-25 -179q-22 11 -45 17t-40 6q-48 0 -69 -44t-21 -142q0 -192 58 -192q12 0 28 7v86h-32v147zM417 875q0 -73 -36 -107.5t-107 -34.5t-106.5 34
t-35.5 108l116 3q0 -24 6 -35.5t20 -11.5q28 0 28 47z" />
    <glyph glyph-name="gbreve" unicode="&#x11f;" horiz-adv-x="445" 
d="M271 149q86 0 133 -38.5t47 -113.5q0 -85 -62 -133t-177 -48q-187 0 -187 141q0 29 15.5 54t39.5 44q-55 21 -55 88q0 28 15 52.5t38 42.5q-55 50 -55 144q0 86 55 137.5t148 51.5q54 0 88 -17l99 38l30 -116l-44 -9q29 -41 29 -85q0 -90 -51.5 -141.5t-149.5 -51.5
q-12 0 -32 2q-8 -11 -8 -20q0 -11 10.5 -16.5t23.5 -5.5h50zM207.5 428.5q-6.5 -16.5 -6.5 -45.5q0 -68 25 -68q12 0 18 18t6 49q0 29 -6 46t-18 17t-18.5 -16.5zM253.5 -43q9.5 14 9.5 40q0 47 -38 47h-12q-14 -22 -14 -49q0 -52 30 -52q15 0 24.5 14zM368 749
q0 -73 -36 -107.5t-107 -34.5t-106.5 34t-35.5 108l116 3q0 -24 6 -35.5t20 -11.5q28 0 28 47z" />
    <glyph glyph-name="Gdotaccent" unicode="&#x120;" horiz-adv-x="480" 
d="M263 396h192v-347q-46 -31 -89 -47t-101 -16q-120 0 -181.5 91t-61.5 272q0 177 66.5 270.5t189.5 93.5q66 0 131 -23l-25 -179q-22 11 -45 17t-40 6q-48 0 -69 -44t-21 -142q0 -192 58 -192q12 0 28 7v86h-32v147zM366 739h-184v132h184v-132z" />
    <glyph glyph-name="gdotaccent" unicode="&#x121;" horiz-adv-x="445" 
d="M271 149q86 0 133 -38.5t47 -113.5q0 -85 -62 -133t-177 -48q-187 0 -187 141q0 29 15.5 54t39.5 44q-55 21 -55 88q0 28 15 52.5t38 42.5q-55 50 -55 144q0 86 55 137.5t148 51.5q54 0 88 -17l99 38l30 -116l-44 -9q29 -41 29 -85q0 -90 -51.5 -141.5t-149.5 -51.5
q-12 0 -32 2q-8 -11 -8 -20q0 -11 10.5 -16.5t23.5 -5.5h50zM207.5 428.5q-6.5 -16.5 -6.5 -45.5q0 -68 25 -68q12 0 18 18t6 49q0 29 -6 46t-18 17t-18.5 -16.5zM253.5 -43q9.5 14 9.5 40q0 47 -38 47h-12q-14 -22 -14 -49q0 -52 30 -52q15 0 24.5 14zM316 611h-184v136
h184v-136z" />
    <glyph glyph-name="uni0122" unicode="&#x122;" horiz-adv-x="480" 
d="M263 396h192v-347q-46 -31 -89 -47t-101 -16q-120 0 -181.5 91t-61.5 272q0 177 66.5 270.5t189.5 93.5q66 0 131 -23l-25 -179q-22 11 -45 17t-40 6q-48 0 -69 -44t-21 -142q0 -192 58 -192q12 0 28 7v86h-32v147zM181 -193q28 10 40 25t12 36h-59v94h142q10 -34 10 -65
q0 -55 -31.5 -89t-86.5 -53z" />
    <glyph glyph-name="uni0123" unicode="&#x123;" horiz-adv-x="445" 
d="M271 149q86 0 133 -38.5t47 -113.5q0 -85 -62 -133t-177 -48q-187 0 -187 141q0 29 15.5 54t39.5 44q-55 21 -55 88q0 28 15 52.5t38 42.5q-55 50 -55 144q0 86 55 137.5t148 51.5q54 0 88 -17l99 38l30 -116l-44 -9q29 -41 29 -85q0 -90 -51.5 -141.5t-149.5 -51.5
q-12 0 -32 2q-8 -11 -8 -20q0 -11 10.5 -16.5t23.5 -5.5h50zM207.5 428.5q-6.5 -16.5 -6.5 -45.5q0 -68 25 -68q12 0 18 18t6 49q0 29 -6 46t-18 17t-18.5 -16.5zM253.5 -43q9.5 14 9.5 40q0 47 -38 47h-12q-14 -22 -14 -49q0 -52 30 -52q15 0 24.5 14zM294 760
q-28 -10 -40 -24.5t-12 -36.5h58v-94h-141q-10 34 -10 65q0 103 117 142z" />
    <glyph glyph-name="Hcircumflex" unicode="&#x124;" horiz-adv-x="521" 
d="M297 437v263h188v-700h-188v261h-73v-261h-189v700h189v-263h73zM349 873l57 -126l-127 -8l-18 51l-19 -51l-127 8l56 126h178z" />
    <glyph glyph-name="hcircumflex" unicode="&#x125;" horiz-adv-x="471" 
d="M413 523.5q30 -46.5 30 -141.5v-382h-178v348q0 54 -24 54q-13 0 -21.5 -22.5t-8.5 -73.5v-306h-178v738h178v-243q18 35 47 55t68 20q57 0 87 -46.5zM337 895l57 -126l-127 -8l-18 51l-19 -51l-127 8l56 126h178z" />
    <glyph glyph-name="Hbar" unicode="&#x126;" horiz-adv-x="521" 
d="M485 608h39v-87h-39v-521h-188v261h-73v-261h-189v521h-37v87h37v92h189v-92h73v92h188v-92zM224 437h73v84h-73v-84z" />
    <glyph glyph-name="hbar" unicode="&#x127;" horiz-adv-x="471" 
d="M413 523.5q30 -46.5 30 -141.5v-382h-178v348q0 54 -24 54q-13 0 -21.5 -22.5t-8.5 -73.5v-306h-178v594h-53v74h53v70h178v-69h43v-75h-43v-99q18 35 47 55t68 20q57 0 87 -46.5z" />
    <glyph glyph-name="Itilde" unicode="&#x128;" horiz-adv-x="257" 
d="M222 0h-187v700h187v-700zM7 753q-2 59 15.5 91.5t53.5 32.5q22 0 50 -15q16 -9 24 -9q16 0 16 28l82 -16q2 -60 -15.5 -92t-52.5 -32q-23 0 -51 15q-18 9 -25 9t-11 -7t-3 -21z" />
    <glyph glyph-name="itilde" unicode="&#x129;" horiz-adv-x="240" 
d="M209 0h-178v557h178v-557zM-1 618q-2 59 15.5 91.5t53.5 32.5q22 0 50 -15q16 -9 24 -9q16 0 16 28l82 -16q2 -60 -15.5 -92t-52.5 -32q-23 0 -51 15q-18 9 -25 9t-11 -7t-3 -21z" />
    <glyph glyph-name="Imacron" unicode="&#x12a;" horiz-adv-x="257" 
d="M222 0h-187v700h187v-700zM268 748h-280v99h280v-99z" />
    <glyph glyph-name="imacron" unicode="&#x12b;" horiz-adv-x="240" 
d="M209 0h-178v557h178v-557zM260 616h-280v99h280v-99z" />
    <glyph glyph-name="Ibreve" unicode="&#x12c;" horiz-adv-x="257" 
d="M222 0h-187v700h187v-700zM270 875q0 -73 -36 -107.5t-107 -34.5t-106.5 34t-35.5 108l116 3q0 -24 6 -35.5t20 -11.5q28 0 28 47z" />
    <glyph glyph-name="ibreve" unicode="&#x12d;" horiz-adv-x="240" 
d="M209 0h-178v557h178v-557zM263 740q0 -73 -36 -107.5t-107 -34.5t-106.5 34t-35.5 108l116 3q0 -24 6 -35.5t20 -11.5q28 0 28 47z" />
    <glyph glyph-name="Iogonek" unicode="&#x12e;" horiz-adv-x="257" 
d="M247 -195q-50 -14 -93 -14q-57 0 -87 26t-30 70q0 33 18.5 62.5t46.5 50.5h-67v700h187v-700h-1q-36 -35 -36 -66q0 -30 35 -30q5 0 17 2z" />
    <glyph glyph-name="iogonek" unicode="&#x12f;" horiz-adv-x="240" 
d="M27 738h184v-136h-184v136zM235 -195q-50 -14 -93 -14q-57 0 -87 26t-30 70q0 33 18.5 62.5t46.5 50.5h-59v557h178v-557q-36 -35 -36 -66q0 -30 35 -30q5 0 17 2z" />
    <glyph glyph-name="Idotaccent" unicode="&#x130;" horiz-adv-x="257" 
d="M222 0h-187v700h187v-700zM219 739h-184v132h184v-132z" />
    <glyph glyph-name="dotlessi" unicode="&#x131;" horiz-adv-x="240" 
d="M209 0h-178v557h178v-557z" />
    <glyph glyph-name="IJ" unicode="&#x132;" horiz-adv-x="591" 
d="M222 0h-187v700h187v-700zM261 -2l24 166q17 -1 42 -1t37 20.5t12 68.5v278h-49v170h235v-460q0 -128 -56 -191t-162 -63q-38 0 -83 12z" />
    <glyph glyph-name="ij" unicode="&#x133;" horiz-adv-x="483" 
d="M209 0h-178v557h178v-557zM211 602h-184v136h184v-136zM226 -39q8 1 24 1q12 0 18 13.5t6 43.5v538h178v-538q0 -107 -42 -154t-137 -47q-27 0 -48 8zM453 602h-184v136h184v-136z" />
    <glyph glyph-name="Jcircumflex" unicode="&#x134;" horiz-adv-x="334" 
d="M4 -2l24 166q17 -1 42 -1t37 20.5t12 68.5v278h-49v170h235v-460q0 -128 -56 -191t-162 -63q-38 0 -83 12zM274 873l57 -126l-127 -8l-18 51l-19 -51l-127 8l56 126h178z" />
    <glyph glyph-name="jcircumflex" unicode="&#x135;" horiz-adv-x="243" 
d="M-14 -39q8 1 24 1q12 0 18 13.5t6 43.5v538h178v-538q0 -107 -42 -154t-137 -47q-27 0 -48 8zM210 749l55 -140l-123 -9l-19 57l-18 -57l-123 9l54 140h174z" />
    <glyph glyph-name="uni0136" unicode="&#x136;" horiz-adv-x="529" 
d="M385 351l137 -350h-197l-103 298l-1 -299h-186l2 700h186l-1 -295l99 295h196zM204 -193q28 10 40 25t12 36h-59v94h142q10 -34 10 -65q0 -55 -31.5 -89t-86.5 -53z" />
    <glyph glyph-name="uni0137" unicode="&#x137;" horiz-adv-x="481" 
d="M366 282l111 -282h-189l-77 229v-229h-178v738h178v-403l75 222h190zM169 -193q28 10 40 25t12 36h-59v94h142q10 -34 10 -65q0 -55 -31.5 -89t-86.5 -53z" />
    <glyph glyph-name="kgreenlandic" unicode="&#x138;" horiz-adv-x="481" 
d="M366 282l111 -282h-189l-77 229v-229h-178v557h178v-222l75 222h190z" />
    <glyph glyph-name="Lacute" unicode="&#x139;" horiz-adv-x="363" 
d="M349 0h-314v700h191v-531h123v-169zM304 845l-100 -110l-138 7l71 137z" />
    <glyph glyph-name="lacute" unicode="&#x13a;" horiz-adv-x="244" 
d="M211 0h-178v738h178v-738zM301 883l-100 -110l-138 7l71 137z" />
    <glyph glyph-name="uni013B" unicode="&#x13b;" horiz-adv-x="363" 
d="M349 0h-314v700h191v-531h123v-169zM118 -193q28 10 40 25t12 36h-59v94h142q10 -34 10 -65q0 -55 -31.5 -89t-86.5 -53z" />
    <glyph glyph-name="uni013C" unicode="&#x13c;" horiz-adv-x="244" 
d="M211 0h-178v738h178v-738zM63 -193q28 10 40 25t12 36h-59v94h142q10 -34 10 -65q0 -55 -31.5 -89t-86.5 -53z" />
    <glyph glyph-name="Lcaron" unicode="&#x13d;" horiz-adv-x="363" 
d="M349 0h-314v700h191v-531h123v-169zM305 517v183h129l-29 -183h-100z" />
    <glyph glyph-name="lcaron" unicode="&#x13e;" horiz-adv-x="244" 
d="M211 0h-178v738h178v-738zM252 555v183h95l-22 -183h-73z" />
    <glyph glyph-name="Ldot" unicode="&#x13f;" horiz-adv-x="482" 
d="M349 0h-314v700h191v-531h123v-169zM365 166v100h106v-100h-106z" />
    <glyph glyph-name="ldot" unicode="&#x140;" horiz-adv-x="373" 
d="M211 0h-178v738h178v-738zM255 166v100h106v-100h-106z" />
    <glyph glyph-name="Lslash" unicode="&#x141;" horiz-adv-x="363" 
d="M226 352v-183h123v-169h-314v268l-26 -11l-33 67l59 26v350h191v-266l23 10l33 -68z" />
    <glyph glyph-name="lslash" unicode="&#x142;" horiz-adv-x="244" 
d="M247 463l33 -68l-69 -30v-365h-178v287l-26 -11l-33 67l59 26v369h178v-291z" />
    <glyph glyph-name="Nacute" unicode="&#x143;" horiz-adv-x="508" 
d="M213 0h-178v700h172l87 -298v298h179v-700h-168l-92 310v-310zM424 845l-100 -110l-138 7l71 137z" />
    <glyph glyph-name="nacute" unicode="&#x144;" horiz-adv-x="468" 
d="M410 523.5q30 -46.5 30 -141.5v-382h-178v348q0 54 -23 54q-8 0 -16.5 -8.5t-14.5 -24.5v-369h-177v557h177v-64q18 36 47 56.5t68 20.5q57 0 87 -46.5zM377 743l-97 -142l-108 8l61 154z" />
    <glyph glyph-name="uni0145" unicode="&#x145;" horiz-adv-x="508" 
d="M213 0h-178v700h172l87 -298v298h179v-700h-168l-92 310v-310zM185 -193q28 10 40 25t12 36h-59v94h142q10 -34 10 -65q0 -55 -31.5 -89t-86.5 -53z" />
    <glyph glyph-name="uni0146" unicode="&#x146;" horiz-adv-x="468" 
d="M410 523.5q30 -46.5 30 -141.5v-382h-178v348q0 54 -23 54q-8 0 -16.5 -8.5t-14.5 -24.5v-369h-177v557h177v-64q18 36 47 56.5t68 20.5q57 0 87 -46.5zM169 -193q28 10 40 25t12 36h-59v94h142q10 -34 10 -65q0 -55 -31.5 -89t-86.5 -53z" />
    <glyph glyph-name="Ncaron" unicode="&#x147;" horiz-adv-x="508" 
d="M213 0h-178v700h172l87 -298v298h179v-700h-168l-92 310v-310zM254 830l19 51l126 -7l-56 -127h-178l-55 127l126 7z" />
    <glyph glyph-name="ncaron" unicode="&#x148;" horiz-adv-x="468" 
d="M410 523.5q30 -46.5 30 -141.5v-382h-178v348q0 54 -23 54q-8 0 -16.5 -8.5t-14.5 -24.5v-369h-177v557h177v-64q18 36 47 56.5t68 20.5q57 0 87 -46.5zM238 691l19 54l123 -9l-55 -133h-174l-54 133l123 9z" />
    <glyph glyph-name="Eng" unicode="&#x14a;" horiz-adv-x="508" 
d="M473 700v-700h-1v-2q0 -81 -41.5 -131t-137.5 -50q-21 0 -47.5 5.5t-44.5 12.5l19 148q22 -8 39 -8q14 0 22 8.5t8 25.5v45l-76 256v-310h-178v700h172l87 -298v298h179z" />
    <glyph glyph-name="eng" unicode="&#x14b;" horiz-adv-x="463" 
d="M440 0h-1v-2q0 -81 -40.5 -131t-133.5 -50q-20 0 -46.5 5.5t-43.5 12.5l19 148q22 -8 38 -8q13 0 21 8.5t8 25.5v108q0 60 1 85v146q0 54 -23 54q-8 0 -16.5 -8.5t-14.5 -24.5v-369h-177v557h177v-64q18 36 47 56.5t68 20.5q57 0 87 -46.5t30 -141.5v-382z" />
    <glyph glyph-name="Omacron" unicode="&#x14c;" horiz-adv-x="516" 
d="M84.5 79.5q-62.5 92.5 -62.5 269.5q0 172 60 268t176 96q110 0 173 -92.5t63 -269.5q0 -172 -60.5 -268t-175.5 -96q-111 0 -173.5 92.5zM293 211q11 43 11 138q0 97 -10.5 140t-35.5 43q-24 0 -35 -42.5t-11 -139.5q0 -93 10.5 -137.5t35.5 -44.5q24 0 35 43zM398 748
h-280v99h280v-99z" />
    <glyph glyph-name="omacron" unicode="&#x14d;" horiz-adv-x="464" 
d="M73.5 62q-57.5 76 -57.5 218q0 136 56 213.5t161 77.5q101 0 158 -75t57 -215q0 -138 -55.5 -216.5t-160.5 -78.5q-101 0 -158.5 76zM258 182.5q8 30.5 8 97.5q0 66 -8 96t-26 30q-19 0 -27 -29.5t-8 -95.5q0 -68 8.5 -98.5t27.5 -30.5q17 0 25 30.5zM373 616h-280v99
h280v-99z" />
    <glyph glyph-name="Obreve" unicode="&#x14e;" horiz-adv-x="516" 
d="M84.5 79.5q-62.5 92.5 -62.5 269.5q0 172 60 268t176 96q110 0 173 -92.5t63 -269.5q0 -172 -60.5 -268t-175.5 -96q-111 0 -173.5 92.5zM293 211q11 43 11 138q0 97 -10.5 140t-35.5 43q-24 0 -35 -42.5t-11 -139.5q0 -93 10.5 -137.5t35.5 -44.5q24 0 35 43zM399 875
q0 -73 -36 -107.5t-107 -34.5t-106.5 34t-35.5 108l116 3q0 -24 6 -35.5t20 -11.5q28 0 28 47z" />
    <glyph glyph-name="obreve" unicode="&#x14f;" horiz-adv-x="464" 
d="M73.5 62q-57.5 76 -57.5 218q0 136 56 213.5t161 77.5q101 0 158 -75t57 -215q0 -138 -55.5 -216.5t-160.5 -78.5q-101 0 -158.5 76zM258 182.5q8 30.5 8 97.5q0 66 -8 96t-26 30q-19 0 -27 -29.5t-8 -95.5q0 -68 8.5 -98.5t27.5 -30.5q17 0 25 30.5zM375 740
q0 -73 -36 -107.5t-107 -34.5t-106.5 34t-35.5 108l116 3q0 -24 6 -35.5t20 -11.5q28 0 28 47z" />
    <glyph glyph-name="Ohungarumlaut" unicode="&#x150;" horiz-adv-x="516" 
d="M84.5 79.5q-62.5 92.5 -62.5 269.5q0 172 60 268t176 96q110 0 173 -92.5t63 -269.5q0 -172 -60.5 -268t-175.5 -96q-111 0 -173.5 92.5zM293 211q11 43 11 138q0 97 -10.5 140t-35.5 43q-24 0 -35 -42.5t-11 -139.5q0 -93 10.5 -137.5t35.5 -44.5q24 0 35 43zM309 854
l-80 -110l-132 7l49 137zM503 854l-80 -110l-132 7l49 137z" />
    <glyph glyph-name="ohungarumlaut" unicode="&#x151;" horiz-adv-x="464" 
d="M73.5 62q-57.5 76 -57.5 218q0 136 56 213.5t161 77.5q101 0 158 -75t57 -215q0 -138 -55.5 -216.5t-160.5 -78.5q-101 0 -158.5 76zM258 182.5q8 30.5 8 97.5q0 66 -8 96t-26 30q-19 0 -27 -29.5t-8 -95.5q0 -68 8.5 -98.5t27.5 -30.5q17 0 25 30.5zM282 743l-74 -142
l-103 8l37 154zM439 743l-74 -142l-103 8l36 154z" />
    <glyph glyph-name="OE" unicode="&#x152;" horiz-adv-x="701" 
d="M686 170v-170h-321q-48 -14 -87 -14q-121 0 -188.5 93t-67.5 270q0 176 65 270t189 94q36 0 82 -13h323v-170h-151v-99h124v-160h-124v-101h156zM235 210q19 -43 59 -43q29 0 50 7v350q-23 8 -50 8q-39 0 -58.5 -41.5t-19.5 -140.5q0 -97 19 -140z" />
    <glyph glyph-name="oe" unicode="&#x153;" horiz-adv-x="701" 
d="M454 230q5 -50 19 -71.5t44 -21.5q55 0 106 27l27 -141q-27 -16 -68.5 -26t-83.5 -10q-80 0 -134 46q-53 -47 -132 -47q-101 0 -158.5 76t-57.5 218q0 136 56 213.5t161 77.5q79 0 131 -46q53 45 133 45q92 0 140 -67t48 -182q0 -39 -14 -91h-217zM518 324q1 51 -6.5 75
t-24.5 24t-24.5 -24t-9.5 -75h65zM258 182.5q8 30.5 8 97.5q0 66 -8 96t-26 30q-19 0 -27 -29.5t-8 -95.5q0 -68 8.5 -98.5t27.5 -30.5q17 0 25 30.5z" />
    <glyph glyph-name="Racute" unicode="&#x154;" horiz-adv-x="485" 
d="M287 0l-48 201h-18v-201h-186v700h205q107 0 169 -64t62 -183q0 -64 -18.5 -114.5t-54.5 -83.5l81 -255h-192zM221 537v-171h15q25 0 39 21.5t14 63.5q0 40 -14 63t-39 23h-15zM416 845l-100 -110l-138 7l71 137z" />
    <glyph glyph-name="racute" unicode="&#x155;" horiz-adv-x="310" 
d="M293 565.5q8 -1.5 12 -3.5l-9 -186q-18 7 -38 7q-49 0 -49 -131v-252h-178v557h178v-45q30 55 72 55q4 0 12 -1.5zM295 743l-97 -142l-108 8l61 154z" />
    <glyph glyph-name="uni0156" unicode="&#x156;" horiz-adv-x="485" 
d="M287 0l-48 201h-18v-201h-186v700h205q107 0 169 -64t62 -183q0 -64 -18.5 -114.5t-54.5 -83.5l81 -255h-192zM221 537v-171h15q25 0 39 21.5t14 63.5q0 40 -14 63t-39 23h-15zM183 -193q28 10 40 25t12 36h-59v94h142q10 -34 10 -65q0 -55 -31.5 -89t-86.5 -53z" />
    <glyph glyph-name="uni0157" unicode="&#x157;" horiz-adv-x="310" 
d="M293 565.5q8 -1.5 12 -3.5l-9 -186q-18 7 -38 7q-49 0 -49 -131v-252h-178v557h178v-45q30 55 72 55q4 0 12 -1.5zM52 -193q28 10 40 25t12 36h-59v94h142q10 -34 10 -65q0 -55 -31.5 -89t-86.5 -53z" />
    <glyph glyph-name="Rcaron" unicode="&#x158;" horiz-adv-x="485" 
d="M287 0l-48 201h-18v-201h-186v700h205q107 0 169 -64t62 -183q0 -64 -18.5 -114.5t-54.5 -83.5l81 -255h-192zM221 537v-171h15q25 0 39 21.5t14 63.5q0 40 -14 63t-39 23h-15zM246 830l19 51l126 -7l-56 -127h-178l-55 127l126 7z" />
    <glyph glyph-name="rcaron" unicode="&#x159;" horiz-adv-x="310" 
d="M293 565.5q8 -1.5 12 -3.5l-9 -186q-18 7 -38 7q-49 0 -49 -131v-252h-178v557h178v-45q30 55 72 55q4 0 12 -1.5zM155 691l19 54l123 -9l-55 -133h-174l-54 133l123 9z" />
    <glyph glyph-name="Sacute" unicode="&#x15a;" horiz-adv-x="375" 
d="M81 -7q-35 7 -73 22l23 157q42 -19 84 -19q27 0 40.5 11.5t13.5 35.5q0 15 -12.5 34t-40.5 52q-45 57 -73 108t-28 107q0 99 52 156t149 57q31 0 70 -6.5t64 -16.5l-22 -164q-33 18 -63 18q-25 0 -38.5 -13t-13.5 -36q0 -20 13 -39.5t44 -56.5q44 -54 70.5 -105
t26.5 -113q0 -89 -55.5 -142.5t-146.5 -53.5q-49 0 -84 7zM383 845l-100 -110l-138 7l71 137z" />
    <glyph glyph-name="sacute" unicode="&#x15b;" horiz-adv-x="339" 
d="M82.5 -8q-31.5 5 -71.5 17l22 156q20 -11 44.5 -17.5t42.5 -6.5q26 0 26 27q0 11 -10 22t-36 33q-42 36 -63 73.5t-21 103.5q0 55 24 93.5t64 57.5t86 19q67 0 120 -20l-21 -156q-24 12 -39.5 16.5t-30.5 4.5q-16 0 -23 -7.5t-7 -21.5q0 -12 9 -22.5t20 -19.5t15 -13
q45 -39 69.5 -77t24.5 -99q0 -76 -48 -122t-126 -46q-39 0 -70.5 5zM323 743l-97 -142l-108 8l61 154z" />
    <glyph glyph-name="Scircumflex" unicode="&#x15c;" horiz-adv-x="375" 
d="M81 -7q-35 7 -73 22l23 157q42 -19 84 -19q27 0 40.5 11.5t13.5 35.5q0 15 -12.5 34t-40.5 52q-45 57 -73 108t-28 107q0 99 52 156t149 57q31 0 70 -6.5t64 -16.5l-22 -164q-33 18 -63 18q-25 0 -38.5 -13t-13.5 -36q0 -20 13 -39.5t44 -56.5q44 -54 70.5 -105
t26.5 -113q0 -89 -55.5 -142.5t-146.5 -53.5q-49 0 -84 7zM302 873l57 -126l-127 -8l-18 51l-19 -51l-127 8l56 126h178z" />
    <glyph glyph-name="scircumflex" unicode="&#x15d;" horiz-adv-x="339" 
d="M82.5 -8q-31.5 5 -71.5 17l22 156q20 -11 44.5 -17.5t42.5 -6.5q26 0 26 27q0 11 -10 22t-36 33q-42 36 -63 73.5t-21 103.5q0 55 24 93.5t64 57.5t86 19q67 0 120 -20l-21 -156q-24 12 -39.5 16.5t-30.5 4.5q-16 0 -23 -7.5t-7 -21.5q0 -12 9 -22.5t20 -19.5t15 -13
q45 -39 69.5 -77t24.5 -99q0 -76 -48 -122t-126 -46q-39 0 -70.5 5zM270 749l55 -140l-123 -9l-19 57l-18 -57l-123 9l54 140h174z" />
    <glyph glyph-name="Scedilla" unicode="&#x15e;" horiz-adv-x="375" 
d="M327 56.5q-40 -50.5 -109 -65.5l-6 -20q37 -5 59.5 -24t22.5 -48q0 -39 -37.5 -60t-100.5 -21q-44 0 -74 6l15 70q22 -4 37 -4q32 0 32 18q0 19 -33 19q-13 0 -21 -1l16 61q-33 2 -60.5 9t-59.5 19l23 157q42 -19 84 -19q27 0 40.5 11.5t13.5 35.5q0 15 -12.5 34
t-40.5 52q-45 57 -73 108t-28 107q0 99 52 156t149 57q31 0 70 -6.5t64 -16.5l-22 -164q-33 18 -63 18q-25 0 -38.5 -13t-13.5 -36q0 -20 13 -39.5t44 -56.5q44 -54 70.5 -105t26.5 -113q0 -75 -40 -125.5z" />
    <glyph glyph-name="scedilla" unicode="&#x15f;" horiz-adv-x="339" 
d="M211 -29q37 -5 59.5 -24t22.5 -48q0 -39 -37.5 -60t-100.5 -21q-44 0 -74 6l15 70q22 -4 37 -4q32 0 32 18q0 19 -33 19q-13 0 -21 -1l17 62q-56 3 -117 21l22 156q20 -11 44.5 -17.5t42.5 -6.5q26 0 26 27q0 11 -10 22t-36 33q-42 36 -63 73.5t-21 103.5q0 55 24 93.5
t64 57.5t86 19q67 0 120 -20l-21 -156q-24 12 -39.5 16.5t-30.5 4.5q-16 0 -23 -7.5t-7 -21.5q0 -12 9 -22.5t20 -19.5t15 -13q45 -39 69.5 -77t24.5 -99q0 -58 -29 -99t-79 -59z" />
    <glyph glyph-name="Scaron" unicode="&#x160;" horiz-adv-x="375" 
d="M81 -7q-35 7 -73 22l23 157q42 -19 84 -19q27 0 40.5 11.5t13.5 35.5q0 15 -12.5 34t-40.5 52q-45 57 -73 108t-28 107q0 99 52 156t149 57q31 0 70 -6.5t64 -16.5l-22 -164q-33 18 -63 18q-25 0 -38.5 -13t-13.5 -36q0 -20 13 -39.5t44 -56.5q44 -54 70.5 -105
t26.5 -113q0 -89 -55.5 -142.5t-146.5 -53.5q-49 0 -84 7zM213 830l19 51l126 -7l-56 -127h-178l-55 127l126 7z" />
    <glyph glyph-name="scaron" unicode="&#x161;" horiz-adv-x="339" 
d="M82.5 -8q-31.5 5 -71.5 17l22 156q20 -11 44.5 -17.5t42.5 -6.5q26 0 26 27q0 11 -10 22t-36 33q-42 36 -63 73.5t-21 103.5q0 55 24 93.5t64 57.5t86 19q67 0 120 -20l-21 -156q-24 12 -39.5 16.5t-30.5 4.5q-16 0 -23 -7.5t-7 -21.5q0 -12 9 -22.5t20 -19.5t15 -13
q45 -39 69.5 -77t24.5 -99q0 -76 -48 -122t-126 -46q-39 0 -70.5 5zM183 691l19 54l123 -9l-55 -133h-174l-54 133l123 9z" />
    <glyph glyph-name="uni0162" unicode="&#x162;" horiz-adv-x="392" 
d="M289 0h-55l-9 -29q37 -5 59.5 -24t22.5 -48q0 -39 -37.5 -60t-100.5 -21q-44 0 -74 6l15 70q22 -4 37 -4q32 0 32 18q0 19 -33 19q-13 0 -21 -1l20 74h-42v525h-93v175h372v-175h-93v-525z" />
    <glyph glyph-name="uni0163" unicode="&#x163;" horiz-adv-x="333" 
d="M321 406h-97v-218q0 -40 32 -40q16 0 44 11l21 -154q-66 -19 -112 -19h-13l-5 -16q37 -5 59.5 -24t22.5 -48q0 -39 -37.5 -60t-100.5 -21q-44 0 -74 6l15 70q22 -4 37 -4q32 0 32 18q0 19 -33 19q-13 0 -21 -1l22 82h8q-75 44 -75 172v227h-37v77l52 74l89 125h74v-125
h97v-151z" />
    <glyph glyph-name="Tcaron" unicode="&#x164;" horiz-adv-x="392" 
d="M10 700h372v-175h-93v-525h-186v525h-93v175zM197 830l19 51l126 -7l-56 -127h-178l-55 127l126 7z" />
    <glyph glyph-name="tcaron" unicode="&#x165;" horiz-adv-x="333" 
d="M87.5 35q-41.5 49 -41.5 144v227h-37v77l52 74l89 125h74v-125h97v-151h-97v-218q0 -40 32 -40q16 0 44 11l21 -154q-66 -19 -112 -19q-80 0 -121.5 49zM256 583v183h129l-29 -183h-100z" />
    <glyph glyph-name="Tbar" unicode="&#x166;" horiz-adv-x="392" 
d="M382 700v-175h-93v-135h45v-75h-45v-315h-186v315h-41v75h41v135h-93v175h372z" />
    <glyph glyph-name="tbar" unicode="&#x167;" horiz-adv-x="333" 
d="M321 406h-97v-80h49v-75h-49v-63q0 -40 32 -40q16 0 44 11l21 -154q-66 -19 -112 -19q-80 0 -121.5 49t-41.5 144v72h-47v74h47v81h-37v77l52 74l89 125h74v-125h97v-151z" />
    <glyph glyph-name="Utilde" unicode="&#x168;" horiz-adv-x="491" 
d="M87.5 43q-57.5 57 -57.5 154v503h186v-501q0 -46 30 -46q29 0 29 46v501h186v-503q0 -97 -58 -154t-158 -57t-157.5 57zM125 753q-2 59 15.5 91.5t53.5 32.5q22 0 50 -15q16 -9 24 -9q16 0 16 28l82 -16q2 -60 -15.5 -92t-52.5 -32q-23 0 -51 15q-18 9 -25 9t-11 -7
t-3 -21z" />
    <glyph glyph-name="utilde" unicode="&#x169;" horiz-adv-x="469" 
d="M260 557h177v-557h-177v64q-18 -36 -47 -56.5t-68 -20.5q-57 0 -87 46.5t-30 141.5v382h178v-348q0 -54 23 -54q8 0 16.5 8.5t14.5 24.5v369zM108 618q-2 59 15.5 91.5t53.5 32.5q22 0 50 -15q16 -9 24 -9q16 0 16 28l82 -16q2 -60 -15.5 -92t-52.5 -32q-23 0 -51 15
q-18 9 -25 9t-11 -7t-3 -21z" />
    <glyph glyph-name="Umacron" unicode="&#x16a;" horiz-adv-x="491" 
d="M87.5 43q-57.5 57 -57.5 154v503h186v-501q0 -46 30 -46q29 0 29 46v501h186v-503q0 -97 -58 -154t-158 -57t-157.5 57zM387 748h-280v99h280v-99z" />
    <glyph glyph-name="umacron" unicode="&#x16b;" horiz-adv-x="469" 
d="M260 557h177v-557h-177v64q-18 -36 -47 -56.5t-68 -20.5q-57 0 -87 46.5t-30 141.5v382h178v-348q0 -54 23 -54q8 0 16.5 8.5t14.5 24.5v369zM370 616h-280v99h280v-99z" />
    <glyph glyph-name="Ubreve" unicode="&#x16c;" horiz-adv-x="491" 
d="M87.5 43q-57.5 57 -57.5 154v503h186v-501q0 -46 30 -46q29 0 29 46v501h186v-503q0 -97 -58 -154t-158 -57t-157.5 57zM388 875q0 -73 -36 -107.5t-107 -34.5t-106.5 34t-35.5 108l116 3q0 -24 6 -35.5t20 -11.5q28 0 28 47z" />
    <glyph glyph-name="ubreve" unicode="&#x16d;" horiz-adv-x="469" 
d="M260 557h177v-557h-177v64q-18 -36 -47 -56.5t-68 -20.5q-57 0 -87 46.5t-30 141.5v382h178v-348q0 -54 23 -54q8 0 16.5 8.5t14.5 24.5v369zM372 740q0 -73 -36 -107.5t-107 -34.5t-106.5 34t-35.5 108l116 3q0 -24 6 -35.5t20 -11.5q28 0 28 47z" />
    <glyph glyph-name="Uring" unicode="&#x16e;" horiz-adv-x="491" 
d="M87.5 43q-57.5 57 -57.5 154v503h186v-501q0 -46 30 -46q29 0 29 46v501h186v-503q0 -97 -58 -154t-158 -57t-157.5 57zM165.5 744.5q-32.5 31.5 -32.5 78.5t32.5 78t80.5 31q49 0 81.5 -31t32.5 -78t-32.5 -78.5t-81.5 -31.5q-48 0 -80.5 31.5zM267 799.5q8 9.5 8 23.5
t-8 23.5t-21 9.5q-12 0 -20 -9.5t-8 -23.5t8 -23.5t20 -9.5q13 0 21 9.5z" />
    <glyph glyph-name="uring" unicode="&#x16f;" horiz-adv-x="469" 
d="M260 557h177v-557h-177v64q-18 -36 -47 -56.5t-68 -20.5q-57 0 -87 46.5t-30 141.5v382h178v-348q0 -54 23 -54q8 0 16.5 8.5t14.5 24.5v369zM148.5 621.5q-32.5 31.5 -32.5 78.5t32.5 78t80.5 31q49 0 81.5 -31t32.5 -78t-32.5 -78.5t-81.5 -31.5q-48 0 -80.5 31.5z
M250 676.5q8 9.5 8 23.5t-8 23.5t-21 9.5q-12 0 -20 -9.5t-8 -23.5t8 -23.5t20 -9.5q13 0 21 9.5z" />
    <glyph glyph-name="Uhungarumlaut" unicode="&#x170;" horiz-adv-x="491" 
d="M87.5 43q-57.5 57 -57.5 154v503h186v-501q0 -46 30 -46q29 0 29 46v501h186v-503q0 -97 -58 -154t-158 -57t-157.5 57zM298 854l-80 -110l-132 7l49 137zM492 854l-80 -110l-132 7l49 137z" />
    <glyph glyph-name="uhungarumlaut" unicode="&#x171;" horiz-adv-x="469" 
d="M260 557h177v-557h-177v64q-18 -36 -47 -56.5t-68 -20.5q-57 0 -87 46.5t-30 141.5v382h178v-348q0 -54 23 -54q8 0 16.5 8.5t14.5 24.5v369zM278 743l-74 -142l-103 8l37 154zM435 743l-74 -142l-103 8l36 154z" />
    <glyph glyph-name="Uogonek" unicode="&#x172;" horiz-adv-x="491" 
d="M461 197q0 -52 -17.5 -93.5t-50.5 -69.5q-26 -29 -26 -56q0 -30 35 -30q5 0 17 2l10 -101q-50 -14 -93 -14q-57 0 -87 26t-30 70q0 28 15 55q-96 4 -150 60.5t-54 150.5v503h186v-501q0 -46 30 -46q29 0 29 46v501h186v-503z" />
    <glyph glyph-name="uogonek" unicode="&#x173;" horiz-adv-x="469" 
d="M463 -195q-50 -14 -93 -14q-57 0 -87 26t-30 70q0 33 18.5 62.5t46.5 50.5h-58v64q-18 -36 -47 -56.5t-68 -20.5q-57 0 -87 46.5t-30 141.5v382h178v-348q0 -54 23 -54q8 0 16.5 8.5t14.5 24.5v369h177v-557q-36 -35 -36 -66q0 -30 35 -30q5 0 17 2z" />
    <glyph glyph-name="Wcircumflex" unicode="&#x174;" horiz-adv-x="691" 
d="M456 227l45 473h185l-106 -700h-197l-37 324l-38 -324h-197l-106 700h186l45 -473l48 473h124zM435 873l57 -126l-127 -8l-18 51l-19 -51l-127 8l56 126h178z" />
    <glyph glyph-name="wcircumflex" unicode="&#x175;" horiz-adv-x="631" 
d="M408 199l35 358h182l-102 -557h-177l-30 278l-31 -278h-177l-102 557h182l35 -358l36 358h115zM406 749l55 -140l-123 -9l-19 57l-18 -57l-123 9l54 140h174z" />
    <glyph glyph-name="Ycircumflex" unicode="&#x176;" horiz-adv-x="450" 
d="M258 700h192l-132 -500v-200h-186v197l-132 503h192l35 -293zM314 873l57 -126l-127 -8l-18 51l-19 -51l-127 8l56 126h178z" />
    <glyph glyph-name="ycircumflex" unicode="&#x177;" horiz-adv-x="455" 
d="M229 187l40 370h182l-117 -557l-36 -171h-178l32 164l-28 -1l-120 565h181l41 -370h3zM315 746l55 -140l-123 -9l-19 57l-18 -57l-123 9l54 140h174z" />
    <glyph glyph-name="Ydieresis" unicode="&#x178;" horiz-adv-x="450" 
d="M258 700h192l-132 -500v-200h-186v197l-132 503h192l35 -293zM208 739h-128v131h128v-131zM370 739h-128v131h128v-131z" />
    <glyph glyph-name="Zacute" unicode="&#x179;" horiz-adv-x="376" 
d="M362 0h-347v127l131 398h-126v175h338v-126l-132 -399h136v-175zM358 845l-100 -110l-138 7l71 137z" />
    <glyph glyph-name="zacute" unicode="&#x17a;" horiz-adv-x="377" 
d="M362 0h-346v117l125 284h-120v156h337v-116l-124 -283h128v-158zM333 743l-97 -142l-108 8l61 154z" />
    <glyph glyph-name="Zdotaccent" unicode="&#x17b;" horiz-adv-x="376" 
d="M362 0h-347v127l131 398h-126v175h338v-126l-132 -399h136v-175zM280 739h-184v132h184v-132z" />
    <glyph glyph-name="zdotaccent" unicode="&#x17c;" horiz-adv-x="377" 
d="M362 0h-346v117l125 284h-120v156h337v-116l-124 -283h128v-158zM284 602h-184v136h184v-136z" />
    <glyph glyph-name="Zcaron" unicode="&#x17d;" horiz-adv-x="376" 
d="M362 0h-347v127l131 398h-126v175h338v-126l-132 -399h136v-175zM188 830l19 51l126 -7l-56 -127h-178l-55 127l126 7z" />
    <glyph glyph-name="zcaron" unicode="&#x17e;" horiz-adv-x="377" 
d="M362 0h-346v117l125 284h-120v156h337v-116l-124 -283h128v-158zM193 691l19 54l123 -9l-55 -133h-174l-54 133l123 9z" />
    <glyph glyph-name="uni018F" unicode="&#x18f;" horiz-adv-x="509" 
d="M368.5 671q57.5 -43 88 -125.5t30.5 -197.5q0 -171 -63 -267t-179 -96q-105 0 -164 88t-59 245q0 31 10 86h267q-8 145 -86 145q-63 0 -122 -36l-31 159q32 19 79 30.5t94 11.5q78 0 135.5 -43zM284.5 176.5q11.5 34.5 14.5 112.5h-93q2 -72 12 -109.5t32 -37.5
q23 0 34.5 34.5z" />
    <glyph glyph-name="florin" unicode="&#x192;" horiz-adv-x="463" 
d="M348 600.5q-10 -15.5 -12 -41.5v-5h61v-149h-75l-19 -211q-9 -99 -54 -153t-123 -54q-58 0 -110 25l41 157q3 -1 11 -5t14.5 -5.5t13.5 -1.5q12 0 21 15t11 39l17 194h-58v149h71l1 10q10 107 55 163t123 56q62 0 110 -24l-41 -154q-9 5 -17 8t-17 3q-14 0 -24 -15.5z
" />
    <glyph glyph-name="uni019D" unicode="&#x19d;" horiz-adv-x="508" 
d="M294 700h179v-700h-168l-89 300q6 -44 6 -179v-119q0 -81 -42.5 -131t-139.5 -50q-21 0 -49 5.5t-45 12.5l20 148q21 -9 39 -9q12 0 20 6.5t10 18.5v697h172l87 -298v298z" />
    <glyph glyph-name="Ohorn" unicode="&#x1a0;" horiz-adv-x="516" 
d="M505 787q9 -36 9 -66q0 -46 -19 -76.5t-53 -41.5q52 -92 52 -252q0 -172 -60.5 -268t-175.5 -96q-111 0 -173.5 92.5t-62.5 269.5q0 172 60 268t176 96q49 0 88 -18q10 2 14.5 9.5t4.5 23.5q0 14 -5 51zM293 211q11 43 11 138q0 97 -10.5 140t-35.5 43q-24 0 -35 -42.5
t-11 -139.5q0 -93 10.5 -137.5t35.5 -44.5q24 0 35 43z" />
    <glyph glyph-name="ohorn" unicode="&#x1a1;" horiz-adv-x="464" 
d="M483 644q9 -36 9 -67q0 -48 -21 -79.5t-57 -39.5q34 -71 34 -177q0 -138 -55.5 -216.5t-160.5 -78.5q-101 0 -158.5 76t-57.5 218q0 136 56 213.5t161 77.5q52 0 91 -19q10 2 14.5 9.5t4.5 23.5q0 14 -5 51zM258 182.5q8 30.5 8 97.5q0 66 -8 96t-26 30q-19 0 -27 -29.5
t-8 -95.5q0 -68 8.5 -98.5t27.5 -30.5q17 0 25 30.5z" />
    <glyph glyph-name="Uhorn" unicode="&#x1af;" horiz-adv-x="491" 
d="M505 793q9 -36 9 -67q0 -39 -14 -67t-39 -42v-420q0 -97 -58 -154t-158 -57t-157.5 57t-57.5 154v503h186v-501q0 -46 30 -46q29 0 29 46v501h62q15 0 21.5 7.5t6.5 26.5q0 14 -5 51z" />
    <glyph glyph-name="uhorn" unicode="&#x1b0;" horiz-adv-x="469" 
d="M509 650q10 -34 10 -67q0 -49 -22 -80.5t-60 -39.5v-463h-177v64q-18 -36 -47 -56.5t-68 -20.5q-57 0 -87 46.5t-30 141.5v382h178v-348q0 -54 23 -54q8 0 16.5 8.5t14.5 24.5v369h81q15 0 21.5 7.5t6.5 26.5q0 14 -5 51z" />
    <glyph glyph-name="uni01CD" unicode="&#x1cd;" horiz-adv-x="488" 
d="M486 0h-188l-12 108h-86l-12 -108h-187l117 700h253zM241 484l-28 -254h60l-27 254h-5zM244 830l19 51l126 -7l-56 -127h-178l-55 127l126 7z" />
    <glyph glyph-name="uni01CE" unicode="&#x1ce;" horiz-adv-x="446" 
d="M366 510q52 -61 52 -165v-345h-177v71q-17 -42 -44 -63t-59 -21q-127 0 -127 179q0 81 39 124.5t118 43.5q29 0 73 -4v14q0 38 -14.5 56.5t-48.5 18.5q-23 0 -53.5 -7t-55.5 -17l-16 149q37 13 71.5 20t81.5 7q108 0 160 -61zM241 237v6q-12 2 -23 2q-17 0 -25.5 -14.5
t-8.5 -42.5q0 -27 6.5 -43t18.5 -16q32 0 32 108zM220 692l19 54l123 -9l-55 -133h-174l-54 133l123 9z" />
    <glyph glyph-name="uni01CF" unicode="&#x1cf;" horiz-adv-x="257" 
d="M222 0h-187v700h187v-700zM128 830l19 51l126 -7l-56 -127h-178l-55 127l126 7z" />
    <glyph glyph-name="uni01D0" unicode="&#x1d0;" horiz-adv-x="240" 
d="M209 0h-178v557h178v-557zM121 691l19 54l123 -9l-55 -133h-174l-54 133l123 9z" />
    <glyph glyph-name="uni01D1" unicode="&#x1d1;" horiz-adv-x="516" 
d="M84.5 79.5q-62.5 92.5 -62.5 269.5q0 172 60 268t176 96q110 0 173 -92.5t63 -269.5q0 -172 -60.5 -268t-175.5 -96q-111 0 -173.5 92.5zM293 211q11 43 11 138q0 97 -10.5 140t-35.5 43q-24 0 -35 -42.5t-11 -139.5q0 -93 10.5 -137.5t35.5 -44.5q24 0 35 43zM257 830
l19 51l126 -7l-56 -127h-178l-55 127l126 7z" />
    <glyph glyph-name="uni01D2" unicode="&#x1d2;" horiz-adv-x="464" 
d="M73.5 62q-57.5 76 -57.5 218q0 136 56 213.5t161 77.5q101 0 158 -75t57 -215q0 -138 -55.5 -216.5t-160.5 -78.5q-101 0 -158.5 76zM258 182.5q8 30.5 8 97.5q0 66 -8 96t-26 30q-19 0 -27 -29.5t-8 -95.5q0 -68 8.5 -98.5t27.5 -30.5q17 0 25 30.5zM233 691l19 54
l123 -9l-55 -133h-174l-54 133l123 9z" />
    <glyph glyph-name="uni01D3" unicode="&#x1d3;" horiz-adv-x="491" 
d="M87.5 43q-57.5 57 -57.5 154v503h186v-501q0 -46 30 -46q29 0 29 46v501h186v-503q0 -97 -58 -154t-158 -57t-157.5 57zM246 830l19 51l126 -7l-56 -127h-178l-55 127l126 7z" />
    <glyph glyph-name="uni01D4" unicode="&#x1d4;" horiz-adv-x="469" 
d="M260 557h177v-557h-177v64q-18 -36 -47 -56.5t-68 -20.5q-57 0 -87 46.5t-30 141.5v382h178v-348q0 -54 23 -54q8 0 16.5 8.5t14.5 24.5v369zM230 691l19 54l123 -9l-55 -133h-174l-54 133l123 9z" />
    <glyph glyph-name="uni01D5" unicode="&#x1d5;" horiz-adv-x="491" 
d="M87.5 43q-57.5 57 -57.5 154v503h186v-501q0 -46 30 -46q29 0 29 46v501h186v-503q0 -97 -58 -154t-158 -57t-157.5 57zM229 739h-128v131h128v-131zM391 739h-128v131h128v-131zM388 904h-280v99h280v-99z" />
    <glyph glyph-name="uni01D6" unicode="&#x1d6;" horiz-adv-x="469" 
d="M260 557h177v-557h-177v64q-18 -36 -47 -56.5t-68 -20.5q-57 0 -87 46.5t-30 141.5v382h178v-348q0 -54 23 -54q8 0 16.5 8.5t14.5 24.5v369zM208 602h-125v136h125v-136zM376 602h-125v136h125v-136zM370 789h-280v99h280v-99z" />
    <glyph glyph-name="uni01D7" unicode="&#x1d7;" horiz-adv-x="491" 
d="M87.5 43q-57.5 57 -57.5 154v503h186v-501q0 -46 30 -46q29 0 29 46v501h186v-503q0 -97 -58 -154t-158 -57t-157.5 57zM229 739h-128v131h128v-131zM391 739h-128v131h128v-131zM417 1001l-100 -110l-138 7l71 137z" />
    <glyph glyph-name="uni01D8" unicode="&#x1d8;" horiz-adv-x="469" 
d="M260 557h177v-557h-177v64q-18 -36 -47 -56.5t-68 -20.5q-57 0 -87 46.5t-30 141.5v382h178v-348q0 -54 23 -54q8 0 16.5 8.5t14.5 24.5v369zM208 602h-125v136h125v-136zM376 602h-125v136h125v-136zM369 916l-97 -142l-108 8l61 154z" />
    <glyph glyph-name="uni01D9" unicode="&#x1d9;" horiz-adv-x="491" 
d="M87.5 43q-57.5 57 -57.5 154v503h186v-501q0 -46 30 -46q29 0 29 46v501h186v-503q0 -97 -58 -154t-158 -57t-157.5 57zM229 739h-128v131h128v-131zM391 739h-128v131h128v-131zM247 986l19 51l126 -7l-56 -127h-178l-55 127l126 7z" />
    <glyph glyph-name="uni01DA" unicode="&#x1da;" horiz-adv-x="469" 
d="M260 557h177v-557h-177v64q-18 -36 -47 -56.5t-68 -20.5q-57 0 -87 46.5t-30 141.5v382h178v-348q0 -54 23 -54q8 0 16.5 8.5t14.5 24.5v369zM208 602h-125v136h125v-136zM376 602h-125v136h125v-136zM230 864l19 54l123 -9l-55 -133h-174l-54 133l123 9z" />
    <glyph glyph-name="uni01DB" unicode="&#x1db;" horiz-adv-x="491" 
d="M87.5 43q-57.5 57 -57.5 154v503h186v-501q0 -46 30 -46q29 0 29 46v501h186v-503q0 -97 -58 -154t-158 -57t-157.5 57zM229 739h-128v131h128v-131zM391 739h-128v131h128v-131zM316 897l-138 -8l-100 110l167 34z" />
    <glyph glyph-name="Gcaron" unicode="&#x1e6;" horiz-adv-x="480" 
d="M263 396h192v-347q-46 -31 -89 -47t-101 -16q-120 0 -181.5 91t-61.5 272q0 177 66.5 270.5t189.5 93.5q66 0 131 -23l-25 -179q-22 11 -45 17t-40 6q-48 0 -69 -44t-21 -142q0 -192 58 -192q12 0 28 7v86h-32v147zM275 830l19 51l126 -7l-56 -127h-178l-55 127l126 7z
" />
    <glyph glyph-name="gcaron" unicode="&#x1e7;" horiz-adv-x="445" 
d="M271 149q86 0 133 -38.5t47 -113.5q0 -85 -62 -133t-177 -48q-187 0 -187 141q0 29 15.5 54t39.5 44q-55 21 -55 88q0 28 15 52.5t38 42.5q-55 50 -55 144q0 86 55 137.5t148 51.5q54 0 88 -17l99 38l30 -116l-44 -9q29 -41 29 -85q0 -90 -51.5 -141.5t-149.5 -51.5
q-12 0 -32 2q-8 -11 -8 -20q0 -11 10.5 -16.5t23.5 -5.5h50zM207.5 428.5q-6.5 -16.5 -6.5 -45.5q0 -68 25 -68q12 0 18 18t6 49q0 29 -6 46t-18 17t-18.5 -16.5zM253.5 -43q9.5 14 9.5 40q0 47 -38 47h-12q-14 -22 -14 -49q0 -52 30 -52q15 0 24.5 14zM225 700l19 54
l123 -9l-55 -133h-174l-54 133l123 9z" />
    <glyph glyph-name="uni01EA" unicode="&#x1ea;" horiz-adv-x="516" 
d="M400 -52q5 0 17 2l10 -101q-50 -14 -93 -14q-57 0 -87 26t-30 70q0 30 16 57q-100 11 -155.5 102.5t-55.5 258.5q0 172 60 268t176 96q110 0 173 -92.5t63 -269.5q0 -112 -26.5 -193.5t-77.5 -124.5q-25 -29 -25 -55q0 -30 35 -30zM223 489.5q-11 -42.5 -11 -139.5
q0 -93 10.5 -137.5t35.5 -44.5q24 0 35 43t11 138q0 97 -10.5 140t-35.5 43q-24 0 -35 -42.5z" />
    <glyph glyph-name="uni01EB" unicode="&#x1eb;" horiz-adv-x="464" 
d="M363 -61q5 0 17 2l10 -101q-50 -14 -93 -14q-57 0 -87 26t-30 70q0 35 21 66q-87 11 -136 86t-49 206q0 136 56 213.5t161 77.5q101 0 158 -75t57 -215q0 -89 -24 -155t-70 -102q-26 -27 -26 -55q0 -30 35 -30zM205 376.5q-8 -29.5 -8 -95.5q0 -68 8.5 -98.5t27.5 -30.5
q17 0 25 30.5t8 97.5q0 66 -8 96t-26 30q-19 0 -27 -29.5z" />
    <glyph glyph-name="Aringacute" unicode="&#x1fa;" horiz-adv-x="488" 
d="M486 0h-188l-12 108h-86l-12 -108h-187l117 700h253zM241 484l-28 -254h60l-27 254h-5zM163.5 744.5q-32.5 31.5 -32.5 78.5t32.5 78t80.5 31q49 0 81.5 -31t32.5 -78t-32.5 -78.5t-81.5 -31.5q-48 0 -80.5 31.5zM265 799.5q8 9.5 8 23.5t-8 23.5t-21 9.5q-12 0 -20 -9.5
t-8 -23.5t8 -23.5t20 -9.5q13 0 21 9.5zM415 1068l-100 -110l-138 7l71 137z" />
    <glyph glyph-name="aringacute" unicode="&#x1fb;" horiz-adv-x="446" 
d="M366 510q52 -61 52 -165v-345h-177v71q-17 -42 -44 -63t-59 -21q-127 0 -127 179q0 81 39 124.5t118 43.5q29 0 73 -4v14q0 38 -14.5 56.5t-48.5 18.5q-23 0 -53.5 -7t-55.5 -17l-16 149q37 13 71.5 20t81.5 7q108 0 160 -61zM241 237v6q-12 2 -23 2q-17 0 -25.5 -14.5
t-8.5 -42.5q0 -27 6.5 -43t18.5 -16q32 0 32 108zM138.5 622.5q-32.5 31.5 -32.5 78.5t32.5 78t80.5 31q49 0 81.5 -31t32.5 -78t-32.5 -78.5t-81.5 -31.5q-48 0 -80.5 31.5zM240 677.5q8 9.5 8 23.5t-8 23.5t-21 9.5q-12 0 -20 -9.5t-8 -23.5t8 -23.5t20 -9.5q13 0 21 9.5z
M360 983l-97 -142l-108 8l61 154z" />
    <glyph glyph-name="AEacute" unicode="&#x1fc;" horiz-adv-x="652" 
d="M481 271v-101h156v-170h-342v119h-81l-22 -119h-191l138 700h493v-170h-151v-99h124v-160h-124zM291 528l-53 -281h57v281h-4zM563 845l-100 -110l-138 7l71 137z" />
    <glyph glyph-name="aeacute" unicode="&#x1fd;" horiz-adv-x="670" 
d="M423 230q5 -50 19 -71.5t44 -21.5q55 0 106 27l27 -141q-27 -16 -68.5 -26t-83.5 -10q-54 0 -96 21t-71 61q-53 -82 -149 -82q-65 0 -100 47.5t-35 129.5q0 170 172 170q29 0 56 -3v6q0 41 -14.5 61.5t-48.5 20.5q-45 0 -104 -25l-27 149q41 13 76.5 20t79.5 7
q84 0 126 -45q54 45 134 45q92 0 140 -67t48 -182q0 -39 -14 -91h-217zM487 324q1 51 -6.5 75t-24.5 24t-24.5 -24t-9.5 -75h65zM237 149q11 20 13 59q-2 12 -4 36q-8 1 -25 1q-33 0 -33 -56q0 -60 25 -60q13 0 24 20zM470 743l-97 -142l-108 8l61 154z" />
    <glyph glyph-name="oslashacute" unicode="&#x1ff;" horiz-adv-x="464" 
d="M406 474q42 -75 42 -193q0 -138 -55.5 -216.5t-160.5 -78.5q-74 0 -123 40l-29 -44l-64 44l41 62q-41 73 -41 192q0 136 56 213.5t161 77.5q70 0 119 -36l29 44l65 -44zM207 381q-8 -25 -10 -80l57 86q-7 19 -22 19q-17 0 -25 -25zM257 178.5q8 26.5 9 84.5l-58 -88
q7 -23 25 -23q16 0 24 26.5zM373 743l-97 -142l-108 8l61 154z" />
    <glyph glyph-name="uni0218" unicode="&#x218;" horiz-adv-x="375" 
d="M81 -7q-35 7 -73 22l23 157q42 -19 84 -19q27 0 40.5 11.5t13.5 35.5q0 15 -12.5 34t-40.5 52q-45 57 -73 108t-28 107q0 99 52 156t149 57q31 0 70 -6.5t64 -16.5l-22 -164q-33 18 -63 18q-25 0 -38.5 -13t-13.5 -36q0 -20 13 -39.5t44 -56.5q44 -54 70.5 -105
t26.5 -113q0 -89 -55.5 -142.5t-146.5 -53.5q-49 0 -84 7zM114 -193q28 10 40 25t12 36h-59v94h142q10 -34 10 -65q0 -55 -31.5 -89t-86.5 -53z" />
    <glyph glyph-name="uni0219" unicode="&#x219;" horiz-adv-x="339" 
d="M82.5 -8q-31.5 5 -71.5 17l22 156q20 -11 44.5 -17.5t42.5 -6.5q26 0 26 27q0 11 -10 22t-36 33q-42 36 -63 73.5t-21 103.5q0 55 24 93.5t64 57.5t86 19q67 0 120 -20l-21 -156q-24 12 -39.5 16.5t-30.5 4.5q-16 0 -23 -7.5t-7 -21.5q0 -12 9 -22.5t20 -19.5t15 -13
q45 -39 69.5 -77t24.5 -99q0 -76 -48 -122t-126 -46q-39 0 -70.5 5zM114 -193q28 10 40 25t12 36h-59v94h142q10 -34 10 -65q0 -55 -31.5 -89t-86.5 -53z" />
    <glyph glyph-name="uni021A" unicode="&#x21a;" horiz-adv-x="392" 
d="M10 700h372v-175h-93v-525h-186v525h-93v175zM128 -193q28 10 40 25t12 36h-59v94h142q10 -34 10 -65q0 -55 -31.5 -89t-86.5 -53z" />
    <glyph glyph-name="uni021B" unicode="&#x21b;" horiz-adv-x="333" 
d="M87.5 35q-41.5 49 -41.5 144v227h-37v77l52 74l89 125h74v-125h97v-151h-97v-218q0 -40 32 -40q16 0 44 11l21 -154q-66 -19 -112 -19q-80 0 -121.5 49zM94 -194q28 10 40 25t12 36h-59v94h142q10 -34 10 -65q0 -55 -31.5 -89t-86.5 -53z" />
    <glyph glyph-name="uni0232" unicode="&#x232;" horiz-adv-x="450" 
d="M258 700h192l-132 -500v-200h-186v197l-132 503h192l35 -293zM365 748h-280v99h280v-99z" />
    <glyph glyph-name="uni0233" unicode="&#x233;" horiz-adv-x="455" 
d="M229 187l40 370h182l-117 -557l-36 -171h-178l32 164l-28 -1l-120 565h181l41 -370h3zM368 613h-280v99h280v-99z" />
    <glyph glyph-name="uni0237" unicode="&#x237;" horiz-adv-x="243" 
d="M-14 -39q8 1 24 1q12 0 18 13.5t6 43.5v538h178v-538q0 -107 -42 -154t-137 -47q-27 0 -48 8z" />
    <glyph glyph-name="uni0259" unicode="&#x259;" horiz-adv-x="442" 
d="M366.5 492.5q58.5 -77.5 58.5 -215.5q0 -134 -56.5 -212t-164.5 -78q-92 0 -140 67t-48 182q0 39 14 91h217q-5 50 -19 71.5t-44 21.5q-54 0 -106 -27l-27 141q27 16 68.5 26t83.5 10q105 0 163.5 -77.5zM238.5 158q7.5 24 9.5 75h-65q-1 -51 6.5 -75t24.5 -24t24.5 24z
" />
    <glyph glyph-name="uni0272" unicode="&#x272;" horiz-adv-x="468" 
d="M410 523.5q30 -46.5 30 -141.5v-382h-178v348q0 54 -23 54q-8 0 -16.5 -8.5t-14.5 -24.5v-138q1 -29 1 -110v-119q0 -81 -40.5 -131t-133.5 -50q-20 0 -46.5 5.5t-43.5 12.5l19 148q19 -9 38 -9q13 0 21 9t8 26v544h177v-64q18 36 47 56.5t68 20.5q57 0 87 -46.5z" />
    <glyph glyph-name="uni02B0" unicode="&#x2b0;" horiz-adv-x="267" 
d="M237.5 717.5q18.5 -27.5 18.5 -80.5v-203h-102v182q0 32 -15 32q-8 0 -14 -13t-6 -40v-161h-102v413h102v-143q23 41 67 41q33 0 51.5 -27.5z" />
    <glyph glyph-name="circumflex" unicode="&#x2c6;" horiz-adv-x="327" 
d="M250 749l55 -140l-123 -9l-19 57l-18 -57l-123 9l54 140h174z" />
    <glyph glyph-name="caron" unicode="&#x2c7;" horiz-adv-x="327" 
d="M163 691l19 54l123 -9l-55 -133h-174l-54 133l123 9z" />
    <glyph glyph-name="breve" unicode="&#x2d8;" horiz-adv-x="329" 
d="M307 740q0 -73 -36 -107.5t-107 -34.5t-106.5 34t-35.5 108l116 3q0 -24 6 -35.5t20 -11.5q28 0 28 47z" />
    <glyph glyph-name="dotaccent" unicode="&#x2d9;" horiz-adv-x="228" 
d="M206 602h-184v136h184v-136z" />
    <glyph glyph-name="ring" unicode="&#x2da;" horiz-adv-x="271" 
d="M54.5 621.5q-32.5 31.5 -32.5 78.5t32.5 78t80.5 31q49 0 81.5 -31t32.5 -78t-32.5 -78.5t-81.5 -31.5q-48 0 -80.5 31.5zM156 676.5q8 9.5 8 23.5t-8 23.5t-21 9.5q-12 0 -20 -9.5t-8 -23.5t8 -23.5t20 -9.5q13 0 21 9.5z" />
    <glyph glyph-name="ogonek" unicode="&#x2db;" horiz-adv-x="333" 
d="M221 0q-36 -35 -36 -66q0 -30 35 -30q5 0 17 2l10 -101q-50 -14 -93 -14q-57 0 -87 26t-30 70q0 45 32 81t69 54z" />
    <glyph glyph-name="tilde" unicode="&#x2dc;" horiz-adv-x="285" 
d="M22 618q-2 59 15.5 91.5t53.5 32.5q22 0 50 -15q16 -9 24 -9q16 0 16 28l82 -16q2 -60 -15.5 -92t-52.5 -32q-23 0 -51 15q-18 9 -25 9t-11 -7t-3 -21z" />
    <glyph glyph-name="hungarumlaut" unicode="&#x2dd;" horiz-adv-x="378" 
d="M199 743l-74 -142l-103 8l37 154zM356 743l-74 -142l-103 8l36 154z" />
    <glyph glyph-name="uni02E1" unicode="&#x2e1;" horiz-adv-x="134" 
d="M117 434h-100v416h100v-416z" />
    <glyph glyph-name="uni02E2" unicode="&#x2e2;" horiz-adv-x="192" 
d="M11 437l10 77q13 -6 22.5 -9t18.5 -3q6 0 11 6t5 15q0 19 -23 42q-20 19 -30.5 36.5t-10.5 47.5q0 48 27.5 74.5t68.5 26.5q15 0 34.5 -2.5t28.5 -6.5l-10 -81q-22 11 -35 11q-7 0 -11.5 -6t-4.5 -14q0 -11 5 -19.5t15 -18.5q4 -4 18.5 -19.5t22.5 -34.5t8 -42
q0 -41 -26.5 -66.5t-68.5 -25.5q-40 0 -75 12z" />
    <glyph glyph-name="gravecomb" unicode="&#x300;" 
d="M-23 609l-107 -8l-98 142l145 20z" />
    <glyph glyph-name="acutecomb" unicode="&#x301;" 
d="M-23 743l-97 -142l-108 8l61 154z" />
    <glyph glyph-name="uni0302" unicode="&#x302;" 
d="M-77 749l55 -140l-123 -9l-19 57l-18 -57l-123 9l54 140h174z" />
    <glyph glyph-name="tildecomb" unicode="&#x303;" 
d="M-263 618q-2 59 15.5 91.5t53.5 32.5q22 0 50 -15q16 -9 24 -9q16 0 16 28l82 -16q2 -60 -15.5 -92t-52.5 -32q-23 0 -51 15q-18 9 -25 9t-11 -7t-3 -21z" />
    <glyph glyph-name="uni0304" unicode="&#x304;" 
d="M-5 616h-280v99h280v-99z" />
    <glyph glyph-name="uni0306" unicode="&#x306;" 
d="M-22 740q0 -73 -36 -107.5t-107 -34.5t-106.5 34t-35.5 108l116 3q0 -24 6 -35.5t20 -11.5q28 0 28 47z" />
    <glyph glyph-name="uni0307" unicode="&#x307;" 
d="M-23 602h-184v136h184v-136z" />
    <glyph glyph-name="uni0308" unicode="&#x308;" 
d="M-190 602h-125v136h125v-136zM-22 602h-125v136h125v-136z" />
    <glyph glyph-name="hookabovecomb" unicode="&#x309;" 
d="M-163 618q29 22 29 45q0 12 -7 19t-18 7q-12 0 -22 -6l-16 78q47 24 89 24q41 0 67 -22.5t26 -63.5q0 -61 -63 -117z" />
    <glyph glyph-name="uni030A" unicode="&#x30a;" 
d="M-216.5 621.5q-32.5 31.5 -32.5 78.5t32.5 78t80.5 31q49 0 81.5 -31t32.5 -78t-32.5 -78.5t-81.5 -31.5q-48 0 -80.5 31.5zM-115 676.5q8 9.5 8 23.5t-8 23.5t-21 9.5q-12 0 -20 -9.5t-8 -23.5t8 -23.5t20 -9.5q13 0 21 9.5z" />
    <glyph glyph-name="uni030B" unicode="&#x30b;" 
d="M-179 743l-74 -142l-103 8l37 154zM-22 743l-74 -142l-103 8l36 154z" />
    <glyph glyph-name="uni030C" unicode="&#x30c;" 
d="M-164 691l19 54l123 -9l-55 -133h-174l-54 133l123 9z" />
    <glyph glyph-name="uni0312" unicode="&#x312;" 
d="M-29 751q-28 -10 -40 -24.5t-12 -36.5h58v-94h-141q-10 34 -10 65q0 103 117 142z" />
    <glyph glyph-name="uni031B" unicode="&#x31b;" 
d="M-259 626q15 0 21.5 7.5t6.5 26.5q0 14 -5 51l145 8q10 -34 10 -67q0 -56 -29 -89t-76 -33q-40 0 -83 23z" />
    <glyph glyph-name="dotbelowcomb" unicode="&#x323;" 
d="M-180 -177v136h166v-136h-166z" />
    <glyph glyph-name="uni0324" unicode="&#x324;" 
d="M-190 -199h-125v136h125v-136zM-22 -199h-125v136h125v-136z" />
    <glyph glyph-name="uni0326" unicode="&#x326;" 
d="M-184 -193q28 10 40 25t12 36h-59v94h142q10 -34 10 -65q0 -55 -31.5 -89t-86.5 -53z" />
    <glyph glyph-name="uni0327" unicode="&#x327;" 
d="M-121 -29q37 -5 59.5 -24t22.5 -48q0 -39 -37.5 -60t-100.5 -21q-44 0 -74 6l15 70q22 -4 37 -4q32 0 32 18q0 19 -33 19q-13 0 -21 -1l22 82h89z" />
    <glyph glyph-name="uni0328" unicode="&#x328;" 
d="M-46 0q-36 -35 -36 -66q0 -30 35 -30q5 0 17 2l10 -101q-50 -14 -93 -14q-57 0 -87 26t-30 70q0 45 32 81t69 54z" />
    <glyph glyph-name="uni032E" unicode="&#x32e;" 
d="M-22 -36q0 -55 -28.5 -81t-86.5 -26q-57 0 -86 25.5t-29 81.5l93 2q0 -36 22 -36t22 36z" />
    <glyph glyph-name="uni0331" unicode="&#x331;" 
d="M-5 -153h-280v99h280v-99z" />
    <glyph glyph-name="uni0335" unicode="&#x335;" 
d="M-301 291v74l274 1v-75h-274z" />
    <glyph glyph-name="uni0336" unicode="&#x336;" 
d="M-459 410v87h451v-87h-451z" />
    <glyph glyph-name="uni0337" unicode="&#x337;" 
d="M-318 277l-33 67l273 120l33 -68z" />
    <glyph glyph-name="uni0338" unicode="&#x338;" 
d="M-476 -18l-64 44l365 553l65 -44z" />
    <glyph glyph-name="tonos" unicode="&#x384;" horiz-adv-x="289" 
d="M267 768l-61 -159h-106l11 159h156z" />
    <glyph glyph-name="dieresistonos" unicode="&#x385;" horiz-adv-x="518" 
d="M324 798l-53 -160h-76l10 160h119zM170 605h-101v117h101v-117zM423 605h-101v117h101v-117z" />
    <glyph glyph-name="Alphatonos" unicode="&#x386;" horiz-adv-x="488" 
d="M486 0h-188l-12 109h-86l-12 -109h-187l120 700h247zM243 484l-29 -254h59l-28 254h-2zM111 700l-61 -159h-106l11 159h156z" />
    <glyph glyph-name="Epsilontonos" unicode="&#x388;" horiz-adv-x="392" 
d="M221 271v-101h156v-170h-342v700h337v-170h-151v-99h124v-160h-124zM23 700l-61 -159h-106l11 159h156z" />
    <glyph glyph-name="Etatonos" unicode="&#x389;" horiz-adv-x="521" 
d="M297 437v263h188v-700h-188v261h-73v-261h-189v700h189v-263h73zM20 700l-61 -159h-106l11 159h156z" />
    <glyph glyph-name="Iotatonos" unicode="&#x38a;" horiz-adv-x="257" 
d="M222 0h-187v700h187v-700zM20 700l-61 -159h-106l11 159h156z" />
    <glyph glyph-name="Omicrontonos" unicode="&#x38c;" horiz-adv-x="516" 
d="M84.5 79.5q-62.5 92.5 -62.5 269.5q0 172 60 268t176 96q110 0 173 -92.5t63 -269.5q0 -172 -60.5 -268t-175.5 -96q-111 0 -173.5 92.5zM293 211q11 43 11 138q0 97 -10.5 140t-35.5 43q-24 0 -35 -42.5t-11 -139.5q0 -93 10.5 -137.5t35.5 -44.5q24 0 35 43zM74 700
l-61 -159h-106l11 159h156z" />
    <glyph glyph-name="Upsilontonos" unicode="&#x38e;" horiz-adv-x="450" 
d="M258 700h192l-132 -500v-200h-186v197l-132 503h192l35 -293zM-18 700l-61 -159h-106l11 159h156z" />
    <glyph glyph-name="Omegatonos" unicode="&#x38f;" horiz-adv-x="508" 
d="M472 349q-14 -49 -34 -89t-53 -97l93 17v-180h-215v140l8 54q15 101 20.5 151t5.5 100q0 42 -11 65t-32 23q-20 0 -31.5 -22.5t-11.5 -65.5q0 -58 7 -117t27 -188v-140h-215v180l94 -17q-35 60 -54.5 98t-33.5 87t-14 104q0 120 59.5 191t172.5 71q108 0 170 -68.5
t62 -193.5q0 -54 -14 -103zM37 700l-61 -159h-106l11 159h156z" />
    <glyph glyph-name="iotadieresistonos" unicode="&#x390;" horiz-adv-x="253" 
d="M28 178v379h178v-368q0 -33 23 -33h8l11 -165q-30 -5 -56 -5q-164 0 -164 192zM197 798l-53 -160h-76l10 160h119zM43 605h-101v117h101v-117zM296 605h-101v117h101v-117z" />
    <glyph glyph-name="Alpha" unicode="&#x391;" horiz-adv-x="488" 
d="M486 0h-188l-12 109h-86l-12 -109h-187l120 700h247zM243 484l-29 -254h59l-28 254h-2z" />
    <glyph glyph-name="Beta" unicode="&#x392;" horiz-adv-x="485" 
d="M445 303.5q29 -42.5 29 -103.5q0 -94 -60.5 -147t-167.5 -53h-211v700h208q101 0 158.5 -47.5t57.5 -137.5q0 -52 -24.5 -92t-69.5 -59q51 -18 80 -60.5zM214 545v-127h6q64 0 64 59q0 37 -14 52.5t-49 15.5h-7zM228 155q35 0 52 16t17 51q0 67 -69 67h-14v-134h14z" />
    <glyph glyph-name="Gamma" unicode="&#x393;" horiz-adv-x="359" 
d="M35 0v700h314v-169h-123v-531h-191z" />
    <glyph glyph-name="uni0394" unicode="&#x394;" horiz-adv-x="466" 
d="M114 701h239l112 -700h-464zM233 483l-33 -342h66l-32 342h-1z" />
    <glyph glyph-name="Epsilon" unicode="&#x395;" horiz-adv-x="392" 
d="M221 271v-101h156v-170h-342v700h337v-170h-151v-99h124v-160h-124z" />
    <glyph glyph-name="Zeta" unicode="&#x396;" horiz-adv-x="376" 
d="M362 0h-347v127l131 398h-126v175h338v-126l-132 -399h136v-175z" />
    <glyph glyph-name="Eta" unicode="&#x397;" horiz-adv-x="521" 
d="M297 437v263h188v-700h-188v261h-73v-261h-189v700h189v-263h73z" />
    <glyph glyph-name="Theta" unicode="&#x398;" horiz-adv-x="516" 
d="M84.5 79.5q-62.5 92.5 -62.5 269.5q0 172 60 268t176 96q110 0 173 -92.5t63 -269.5q0 -172 -60.5 -268t-175.5 -96q-111 0 -173.5 92.5zM293 211q11 43 11 138q0 97 -10.5 140t-35.5 43q-24 0 -35 -42.5t-11 -139.5q0 -93 10.5 -137.5t35.5 -44.5q24 0 35 43zM228 312
v75l59 1v-76h-59z" />
    <glyph glyph-name="Iota" unicode="&#x399;" horiz-adv-x="257" 
d="M222 0h-187v700h187v-700z" />
    <glyph glyph-name="Kappa" unicode="&#x39a;" horiz-adv-x="535" 
d="M528 0h-201l-78 220l-28 -32v-188h-186v700h186v-252l86 252h208l-148 -299z" />
    <glyph glyph-name="Lambda" unicode="&#x39b;" horiz-adv-x="473" 
d="M5 0l113 700h237l113 -700h-186l-45 480h-1l-44 -480h-187z" />
    <glyph glyph-name="Mu" unicode="&#x39c;" horiz-adv-x="588" 
d="M369 700h174l21 -700h-169l-11 304l-54 -304h-74l-52 304l-11 -304h-168l21 700h166l82 -344z" />
    <glyph glyph-name="Nu" unicode="&#x39d;" horiz-adv-x="508" 
d="M213 0h-178v700h172l87 -298v298h179v-700h-168l-92 310v-310z" />
    <glyph glyph-name="Xi" unicode="&#x39e;" horiz-adv-x="384" 
d="M366 530l-348 1v169l348 -2v-168zM334 272l-283 1v157l283 -1v-157zM370 -2l-355 2v171l355 -2v-171z" />
    <glyph glyph-name="Omicron" unicode="&#x39f;" horiz-adv-x="516" 
d="M84.5 79.5q-62.5 92.5 -62.5 269.5q0 172 60 268t176 96q110 0 173 -92.5t63 -269.5q0 -172 -60.5 -268t-175.5 -96q-111 0 -173.5 92.5zM293 211q11 43 11 138q0 97 -10.5 140t-35.5 43q-24 0 -35 -42.5t-11 -139.5q0 -93 10.5 -137.5t35.5 -44.5q24 0 35 43z" />
    <glyph glyph-name="Pi" unicode="&#x3a0;" horiz-adv-x="510" 
d="M475 700v-700h-185v525h-69v-525h-186v700h440z" />
    <glyph glyph-name="Rho" unicode="&#x3a1;" horiz-adv-x="486" 
d="M409 633q62 -67 62 -193q0 -122 -59.5 -192t-171.5 -70h-19v-178h-186v700h205q107 0 169 -67zM236 341q25 0 39 25.5t14 73.5q0 44 -14 70.5t-39 26.5h-15v-196h15z" />
    <glyph glyph-name="Sigma" unicode="&#x3a3;" horiz-adv-x="377" 
d="M362 0h-346v138l98 214l-99 210v138h342v-169h-160l85 -179l-85 -183h165v-169z" />
    <glyph glyph-name="Tau" unicode="&#x3a4;" horiz-adv-x="392" 
d="M10 700h372v-175h-93v-525h-186v525h-93v175z" />
    <glyph glyph-name="Upsilon" unicode="&#x3a5;" horiz-adv-x="450" 
d="M258 700h192l-132 -500v-200h-186v197l-132 503h192l35 -293z" />
    <glyph glyph-name="Phi" unicode="&#x3a6;" horiz-adv-x="693" 
d="M640.5 208.5q-29.5 -63.5 -82 -100.5t-119.5 -41v-67h-186v67q-69 4 -121.5 41.5t-81 100t-28.5 140.5q0 77 28.5 140.5t80.5 101.5t122 42v67h186v-67q67 -3 119.5 -39.5t82 -99.5t29.5 -143q0 -79 -29.5 -142.5zM439 220q20 5 31.5 39.5t11.5 89.5q0 57 -11.5 92
t-31.5 39v-260zM221.5 259.5q11.5 -35.5 31.5 -39.5v260q-20 -4 -31.5 -38.5t-11.5 -91.5q0 -55 11.5 -90.5z" />
    <glyph glyph-name="Chi" unicode="&#x3a7;" horiz-adv-x="490" 
d="M381 348l102 -348h-195l-44 225l-41 -225h-196l98 347l-92 353h192l38 -217l38 217h192z" />
    <glyph glyph-name="Psi" unicode="&#x3a8;" horiz-adv-x="625" 
d="M435 700h160v-296q0 -91 -46 -145t-140 -61v-198h-193v198q-90 5 -138 58t-48 147v297h159v-296q0 -37 27 -40v336h193v-336q26 3 26 39v297z" />
    <glyph glyph-name="uni03A9" unicode="&#x3a9;" horiz-adv-x="508" 
d="M472 349q-14 -49 -34 -89t-53 -97l93 17v-180h-215v140l8 54q15 101 20.5 151t5.5 100q0 42 -11 65t-32 23q-20 0 -31.5 -22.5t-11.5 -65.5q0 -58 7 -117t27 -188v-140h-215v180l94 -17q-35 60 -54.5 98t-33.5 87t-14 104q0 120 59.5 191t172.5 71q108 0 170 -68.5
t62 -193.5q0 -54 -14 -103z" />
    <glyph glyph-name="Iotadieresis" unicode="&#x3aa;" horiz-adv-x="257" 
d="M222 0h-187v700h187v-700zM107 745h-125v136h125v-136zM275 745h-125v136h125v-136z" />
    <glyph glyph-name="Upsilondieresis" unicode="&#x3ab;" horiz-adv-x="450" 
d="M258 700h192l-132 -500v-200h-186v197l-132 503h192l35 -293zM203 745h-125v136h125v-136zM371 745h-125v136h125v-136z" />
    <glyph glyph-name="alphatonos" unicode="&#x3ac;" horiz-adv-x="493" 
d="M462 557l-16 -279l16 -278h-177l-3 60q-22 -37 -50 -55t-58 -18q-74 0 -116 76.5t-42 212.5q0 138 41.5 216t114.5 78q65 0 110 -74l3 61h177zM259.5 185q10.5 36 10.5 92q0 58 -10.5 93.5t-26.5 35.5q-34 0 -34 -130q0 -61 8.5 -94t25.5 -33q16 0 26.5 36zM345 768
l-61 -159h-106l11 159h156z" />
    <glyph glyph-name="epsilontonos" unicode="&#x3ad;" horiz-adv-x="320" 
d="M103 9q-43 21 -67 58.5t-24 84.5q0 45 19.5 79.5t52.5 47.5q-31 14 -49.5 48t-18.5 77q0 48 24.5 84.5t68 57t97.5 20.5q47 0 102 -11l-20 -146q-23 9 -48 9q-23 0 -37 -10.5t-14 -27.5q0 -15 10 -24t27 -9h41v-129h-35q-19 0 -31 -11t-12 -28q0 -19 13.5 -30t35.5 -11
q13 0 28.5 3t24.5 8l22 -151q-64 -10 -111 -10q-56 0 -99 21zM304 768l-61 -159h-106l11 159h156z" />
    <glyph glyph-name="etatonos" unicode="&#x3ae;" horiz-adv-x="468" 
d="M410 523.5q30 -46.5 30 -141.5v-553h-178v519q0 54 -23 54q-8 0 -16.5 -8.5t-14.5 -24.5v-369h-177v557h177v-64q18 36 47 56.5t68 20.5q57 0 87 -46.5zM344 768l-61 -159h-106l11 159h156z" />
    <glyph glyph-name="iotatonos" unicode="&#x3af;" horiz-adv-x="253" 
d="M28 178v379h178v-368q0 -33 23 -33h8l11 -165q-30 -5 -56 -5q-164 0 -164 192zM226 768l-61 -159h-106l11 159h156z" />
    <glyph glyph-name="upsilondieresistonos" unicode="&#x3b0;" horiz-adv-x="471" 
d="M264 557h179v-360q0 -96 -53.5 -153.5t-153.5 -57.5q-96 0 -152 55t-56 156v360h178v-360q0 -21 7.5 -33.5t22.5 -12.5q13 0 20.5 12t7.5 34v360zM311 798l-53 -160h-76l10 160h119zM157 605h-101v117h101v-117zM410 605h-101v117h101v-117z" />
    <glyph glyph-name="alpha" unicode="&#x3b1;" horiz-adv-x="493" 
d="M462 557l-16 -279l16 -278h-177l-3 60q-22 -37 -50 -55t-58 -18q-74 0 -116 76.5t-42 212.5q0 138 41.5 216t114.5 78q65 0 110 -74l3 61h177zM259.5 185q10.5 36 10.5 92q0 58 -10.5 93.5t-26.5 35.5q-34 0 -34 -130q0 -61 8.5 -94t25.5 -33q16 0 26.5 36z" />
    <glyph glyph-name="beta" unicode="&#x3b2;" horiz-adv-x="490" 
d="M33 511q0 105 53 169t152 64q96 0 153 -58t57 -160q0 -39 -19 -80.5t-48 -61.5q36 -15 64.5 -60.5t28.5 -103.5q0 -74 -24.5 -126.5t-66.5 -79.5t-93 -27q-45 0 -79 25v-183h-178v682zM211 173q20 -21 41 -21q20 0 30.5 19.5t10.5 55.5q0 77 -41 77h-27v130h11
q15 0 23 20.5t8 60.5q0 34 -8 52.5t-22 18.5q-12 0 -19 -19.5t-7 -55.5v-338z" />
    <glyph glyph-name="gamma" unicode="&#x3b3;" horiz-adv-x="458" 
d="M231 225l38 332h184l-135 -540v-188h-178v188l-136 540h185l38 -332h4z" />
    <glyph glyph-name="delta" unicode="&#x3b4;" horiz-adv-x="451" 
d="M271 584q164 -164 164 -351q0 -113 -54.5 -179t-155.5 -66q-96 0 -152.5 63t-56.5 181q0 90 39.5 152.5t95.5 104.5q-40 54 -83 95l2 156h348v-156h-147zM254 232q0 57 -26 122q-16 -26 -23.5 -55t-7.5 -67q0 -79 29 -79q28 0 28 79z" />
    <glyph glyph-name="epsilon" unicode="&#x3b5;" horiz-adv-x="320" 
d="M103 9q-43 21 -67 58.5t-24 84.5q0 45 19.5 79.5t52.5 47.5q-31 14 -49.5 48t-18.5 77q0 48 24.5 84.5t68 57t97.5 20.5q47 0 102 -11l-20 -146q-23 9 -48 9q-23 0 -37 -10.5t-14 -27.5q0 -15 10 -24t27 -9h41v-129h-35q-19 0 -31 -11t-12 -28q0 -19 13.5 -30t35.5 -11
q13 0 28.5 3t24.5 8l22 -151q-64 -10 -111 -10q-56 0 -99 21z" />
    <glyph glyph-name="zeta" unicode="&#x3b6;" horiz-adv-x="369" 
d="M329 88.5q15 -17.5 25.5 -46t10.5 -70.5q0 -30 -7 -68t-19 -75h-149q23 67 23 103q0 33 -16.5 55t-51.5 48q-53 41 -83.5 92t-30.5 133q0 101 43.5 185t109.5 142h-147v151h294l1 -151h-1q-59 -67 -89 -144.5t-30 -177.5q0 -47 19.5 -76t57.5 -62q25 -21 40 -38.5z" />
    <glyph glyph-name="eta" unicode="&#x3b7;" horiz-adv-x="468" 
d="M410 523.5q30 -46.5 30 -141.5v-553h-178v519q0 54 -23 54q-8 0 -16.5 -8.5t-14.5 -24.5v-369h-177v557h177v-64q18 36 47 56.5t68 20.5q57 0 87 -46.5z" />
    <glyph glyph-name="theta" unicode="&#x3b8;" horiz-adv-x="481" 
d="M408 655q57 -97 57 -286q0 -187 -57 -285t-167 -98t-167.5 97.5t-57.5 285.5q0 187 57 285t168 98q110 0 167 -97zM211 546q-11 -41 -13 -121l85 -4q-2 81 -13 123.5t-30 42.5q-18 0 -29 -41zM283 306l-85 4q6 -159 43 -159q36 0 42 155z" />
    <glyph glyph-name="iota" unicode="&#x3b9;" horiz-adv-x="253" 
d="M28 178v379h178v-368q0 -33 23 -33h8l11 -165q-30 -5 -56 -5q-164 0 -164 192z" />
    <glyph glyph-name="kappa" unicode="&#x3ba;" horiz-adv-x="465" 
d="M461 0h-195l-43 198h-15v-198h-177v557h177v-203h15l36 203h195l-90 -262z" />
    <glyph glyph-name="lambda" unicode="&#x3bb;" horiz-adv-x="455" 
d="M4 -3l109 552l-3 16q-4 23 -12 30.5t-25 7.5l2 138q36 3 66 3q61 0 99.5 -14t61.5 -48.5t35 -96.5l114 -588h-182l-40 368l-44 -368h-181z" />
    <glyph glyph-name="uni03BC" unicode="&#x3bc;" horiz-adv-x="469" 
d="M260 557h178v-557h-178v63q-22 -44 -59 -63l11 -171h-184l1 521v207h178v-348q0 -54 23 -54q7 0 15.5 8t14.5 24v370z" />
    <glyph glyph-name="nu" unicode="&#x3bd;" horiz-adv-x="455" 
d="M343 0h-231l-108 557h181l41 -368h3l40 368h182z" />
    <glyph glyph-name="xi" unicode="&#x3be;" horiz-adv-x="358" 
d="M176 -171q22 55 22 96q0 24 -4.5 36.5t-17 25t-45.5 38.5q-114 91 -114 190q0 64 20 108t57 63q-38 26 -57.5 67t-19.5 96q0 60 26.5 106t71 71t95.5 25q31 0 64 -5.5t58 -13.5l-24 -154q-25 10 -61 10q-27 0 -42.5 -17t-15.5 -48t17 -49t48 -18h43v-145h-44
q-55 0 -55 -76q0 -27 15.5 -51t54.5 -55q42 -31 62.5 -66t20.5 -94q0 -31 -7.5 -69t-18.5 -71h-149z" />
    <glyph glyph-name="omicron" unicode="&#x3bf;" horiz-adv-x="464" 
d="M73.5 62q-57.5 76 -57.5 218q0 136 56 213.5t161 77.5q101 0 158 -75t57 -215q0 -138 -55.5 -216.5t-160.5 -78.5q-101 0 -158.5 76zM258 182.5q8 30.5 8 97.5q0 66 -8 96t-26 30q-19 0 -27 -29.5t-8 -95.5q0 -68 8.5 -98.5t27.5 -30.5q17 0 25 30.5z" />
    <glyph glyph-name="pi" unicode="&#x3c0;" horiz-adv-x="468" 
d="M437 557v-558h-177v405h-52v-405h-177v558h406z" />
    <glyph glyph-name="rho" unicode="&#x3c1;" horiz-adv-x="476" 
d="M28 278q0 136 55 214.5t159 78.5q101 0 159.5 -75.5t58.5 -216.5q0 -131 -41.5 -211.5t-117.5 -80.5q-31 0 -56 16t-39 41v-215h-178v449zM243 150q34 0 34 128q0 129 -35 129t-35 -128q0 -129 36 -129z" />
    <glyph glyph-name="uni03C2" unicode="&#x3c2;" horiz-adv-x="358" 
d="M176 -171q24 70 24 103q0 22 -4.5 35t-14 21.5t-30.5 25.5q-10 7 -30 23q-42 34 -64.5 67.5t-31.5 76t-9 106.5q0 128 59 205.5t168 77.5q45 0 90 -14l-23 -158q-23 11 -45 11q-34 0 -51.5 -30.5t-17.5 -80.5q0 -54 12 -87.5t38 -56.5q44 -39 63.5 -60.5t30.5 -50
t11 -71.5q0 -59 -26 -143h-149z" />
    <glyph glyph-name="sigma" unicode="&#x3c3;" horiz-adv-x="464" 
d="M488 365q-12 0 -24 7.5t-28 22.5q12 -49 12 -114q0 -138 -55.5 -216.5t-160.5 -78.5q-101 0 -158.5 76t-57.5 218q0 136 56 213.5t161 77.5q32 0 71.5 -3t52.5 -4q86 -8 131 -8v-191zM258 182.5q8 30.5 8 97.5q0 66 -8 96t-26 30q-19 0 -27 -29.5t-8 -95.5
q0 -68 8.5 -98.5t27.5 -30.5q17 0 25 30.5z" />
    <glyph glyph-name="tau" unicode="&#x3c4;" horiz-adv-x="301" 
d="M289 407h-65v-218q0 -33 23 -33h8l11 -165q-30 -5 -56 -5q-164 0 -164 192v229h-37v150h280v-150z" />
    <glyph glyph-name="upsilon" unicode="&#x3c5;" horiz-adv-x="471" 
d="M264 557h179v-360q0 -96 -53.5 -153.5t-153.5 -57.5q-96 0 -152 55t-56 156v360h178v-360q0 -21 7.5 -33.5t22.5 -12.5q13 0 20.5 12t7.5 34v360z" />
    <glyph glyph-name="phi" unicode="&#x3c6;" horiz-adv-x="673" 
d="M628.5 127.5q-28.5 -66.5 -81 -103.5t-122.5 -38v-157h-177v157q-66 1 -118.5 35t-83 100t-30.5 159q0 86 28.5 151.5t81 101.5t122.5 37v130h177v-130q67 -1 119.5 -34.5t82.5 -98t30 -156.5q0 -87 -28.5 -153.5zM248 152v254q-51 -5 -51 -125q0 -123 51 -129zM425 152
q24 2 37.5 33.5t13.5 94.5q0 57 -12.5 90t-38.5 36v-254z" />
    <glyph glyph-name="chi" unicode="&#x3c7;" horiz-adv-x="472" 
d="M362 191l106 -362h-186l-46 237l-45 -237h-187l104 361l-95 370h182l40 -226l40 226h182z" />
    <glyph glyph-name="psi" unicode="&#x3c8;" horiz-adv-x="627" 
d="M418 557h178v-336q0 -97 -49.5 -151t-146.5 -62v-179h-176l2 179q-98 8 -148 62t-50 151v336h178v-345q0 -47 39 -50v395h134v-395q19 0 29 13t10 37v345z" />
    <glyph glyph-name="omega" unicode="&#x3c9;" horiz-adv-x="628" 
d="M26.5 417q10.5 64 45.5 140h181q-35 -67 -46 -140.5t-11 -166.5q0 -49 5.5 -78t17.5 -29q26 0 26 110v137h137v-137q0 -110 26 -110q11 0 17.5 27.5t6.5 79.5q0 92 -10.5 166t-46.5 141h180q36 -76 46.5 -139t10.5 -152q0 -83 -20.5 -146.5t-59 -98t-88.5 -34.5
q-53 0 -88 36t-42 97q-6 -61 -41.5 -97t-88.5 -36q-50 0 -88 34.5t-59 97.5t-21 147q0 87 10.5 151z" />
    <glyph glyph-name="iotadieresis" unicode="&#x3ca;" horiz-adv-x="253" 
d="M28 178v379h178v-368q0 -33 23 -33h8l11 -165q-30 -5 -56 -5q-164 0 -164 192zM98 602h-125v136h125v-136zM266 602h-125v136h125v-136z" />
    <glyph glyph-name="upsilondieresis" unicode="&#x3cb;" horiz-adv-x="471" 
d="M264 557h179v-360q0 -96 -53.5 -153.5t-153.5 -57.5q-96 0 -152 55t-56 156v360h178v-360q0 -21 7.5 -33.5t22.5 -12.5q13 0 20.5 12t7.5 34v360zM212 602h-125v136h125v-136zM380 602h-125v136h125v-136z" />
    <glyph glyph-name="omicrontonos" unicode="&#x3cc;" horiz-adv-x="464" 
d="M73.5 62q-57.5 76 -57.5 218q0 136 56 213.5t161 77.5q101 0 158 -75t57 -215q0 -138 -55.5 -216.5t-160.5 -78.5q-101 0 -158.5 76zM258 182.5q8 30.5 8 97.5q0 66 -8 96t-26 30q-19 0 -27 -29.5t-8 -95.5q0 -68 8.5 -98.5t27.5 -30.5q17 0 25 30.5zM340 768l-61 -159
h-106l11 159h156z" />
    <glyph glyph-name="upsilontonos" unicode="&#x3cd;" horiz-adv-x="471" 
d="M264 557h179v-360q0 -96 -53.5 -153.5t-153.5 -57.5q-96 0 -152 55t-56 156v360h178v-360q0 -21 7.5 -33.5t22.5 -12.5q13 0 20.5 12t7.5 34v360zM340 768l-61 -159h-106l11 159h156z" />
    <glyph glyph-name="omegatonos" unicode="&#x3ce;" horiz-adv-x="628" 
d="M26.5 417q10.5 64 45.5 140h181q-35 -67 -46 -140.5t-11 -166.5q0 -49 5.5 -78t17.5 -29q26 0 26 110v137h137v-137q0 -110 26 -110q11 0 17.5 27.5t6.5 79.5q0 92 -10.5 166t-46.5 141h180q36 -76 46.5 -139t10.5 -152q0 -83 -20.5 -146.5t-59 -98t-88.5 -34.5
q-53 0 -88 36t-42 97q-6 -61 -41.5 -97t-88.5 -36q-50 0 -88 34.5t-59 97.5t-21 147q0 87 10.5 151zM421 768l-61 -159h-106l11 159h156z" />
    <glyph glyph-name="uni0400" unicode="&#x400;" horiz-adv-x="392" 
d="M221 271v-101h156v-170h-342v700h337v-170h-151v-99h124v-160h-124zM263 752l-107 -8l-98 142l145 20z" />
    <glyph glyph-name="uni0401" unicode="&#x401;" horiz-adv-x="392" 
d="M221 271v-101h156v-170h-342v700h337v-170h-151v-99h124v-160h-124zM185 745h-125v136h125v-136zM353 745h-125v136h125v-136z" />
    <glyph glyph-name="uni0402" unicode="&#x402;" horiz-adv-x="585" 
d="M522 394.5q41 -59.5 41 -170.5v-10q0 -70 -23 -121.5t-64.5 -79t-94.5 -27.5q-34 0 -70 13l15 145q9 -3 17 -3q34 0 34 77v10q0 31 -9 49t-26 18q-30 0 -51 -15v-280h-186v545h-95v155h422v-155h-141v-119q66 28 114 28q76 0 117 -59.5z" />
    <glyph glyph-name="uni0403" unicode="&#x403;" horiz-adv-x="359" 
d="M35 0v700h314v-169h-123v-531h-191zM333 886l-97 -142l-108 8l61 154z" />
    <glyph glyph-name="uni0404" unicode="&#x404;" horiz-adv-x="399" 
d="M389 8q-19 -8 -51.5 -15t-59.5 -7q-121 0 -188.5 93t-67.5 270q0 176 65 270t189 94q44 0 109 -21l-24 -174q-19 8 -34 11t-33 3q-32 0 -50.5 -26.5t-24.5 -87.5h116v-137h-116q6 -60 24.5 -87t50.5 -27q38 0 69 14z" />
    <glyph glyph-name="uni0405" unicode="&#x405;" horiz-adv-x="375" 
d="M81 -7q-35 7 -73 22l23 157q42 -19 84 -19q27 0 40.5 11.5t13.5 35.5q0 15 -12.5 34t-40.5 52q-45 57 -73 108t-28 107q0 99 52 156t149 57q31 0 70 -6.5t64 -16.5l-22 -164q-33 18 -63 18q-25 0 -38.5 -13t-13.5 -36q0 -20 13 -39.5t44 -56.5q44 -54 70.5 -105
t26.5 -113q0 -89 -55.5 -142.5t-146.5 -53.5q-49 0 -84 7z" />
    <glyph glyph-name="uni0406" unicode="&#x406;" horiz-adv-x="257" 
d="M222 0h-187v700h187v-700z" />
    <glyph glyph-name="uni0407" unicode="&#x407;" horiz-adv-x="257" 
d="M222 0h-187v700h187v-700zM107 745h-125v136h125v-136zM275 745h-125v136h125v-136z" />
    <glyph glyph-name="uni0408" unicode="&#x408;" horiz-adv-x="334" 
d="M4 -2l24 166q17 -1 42 -1t37 20.5t12 68.5v278h-49v170h235v-460q0 -128 -56 -191t-162 -63q-38 0 -83 12z" />
    <glyph glyph-name="uni0409" unicode="&#x409;" horiz-adv-x="747" 
d="M502 522q112 0 171 -70t59 -192q0 -126 -62 -193t-169 -67h-206v545h-45l-6 -206q-4 -135 -21.5 -209.5t-55 -107.5t-105.5 -33q-14 0 -52 4v163q8 -2 12 -2q14 0 21 18.5t10.5 60t5.5 125.5l10 342h412v-178h21zM497 163q25 0 39 26.5t14 71.5q0 48 -14 73t-39 25h-16
v-196h16z" />
    <glyph glyph-name="uni040A" unicode="&#x40a;" horiz-adv-x="763" 
d="M518 465q107 0 168.5 -60.5t61.5 -173.5q0 -107 -59.5 -169t-171.5 -62h-220v293h-73v-293h-189v700h189v-232h73v232h188v-235h33zM513 163q24 0 38.5 18t14.5 51q0 32 -13.5 51t-39.5 19h-28v-139h28z" />
    <glyph glyph-name="uni040B" unicode="&#x40b;" horiz-adv-x="591" 
d="M524.5 406q38.5 -50 38.5 -160v-246h-186v245q0 24 -3 34.5t-10 13.5t-22 3q-13 0 -27 -4.5t-24 -11.5v-280h-186v545h-95v155h422v-155h-141v-119q69 30 116 30q79 0 117.5 -50z" />
    <glyph glyph-name="uni040C" unicode="&#x40c;" horiz-adv-x="516" 
d="M510 0h-205l-68 265h-16v-265h-186v700h186v-281h18l59 281h209l-116 -333zM432 845l-100 -110l-138 7l71 137z" />
    <glyph glyph-name="uni040D" unicode="&#x40d;" horiz-adv-x="508" 
d="M473 700v-700h-179v310l-92 -310h-167v700h179v-298l86 298h173zM310 752l-107 -8l-98 142l145 20z" />
    <glyph glyph-name="uni040E" unicode="&#x40e;" horiz-adv-x="456" 
d="M451 700l-137 -535v-1l-8 -29q-18 -68 -63 -107t-111 -39q-28 0 -55 5.5t-45 16.5l24 163q41 -17 57 -17q11 0 16.5 6t8.5 23v2l-133 512h190l35 -303l34 303h187zM373 883q0 -73 -36 -107.5t-107 -34.5t-106.5 34t-35.5 108l116 3q0 -24 6 -35.5t20 -11.5q28 0 28 47z
" />
    <glyph glyph-name="uni040F" unicode="&#x40f;" horiz-adv-x="510" 
d="M290 700h185v-700h-129v-121h-178v121h-133v700h186v-525h69v525z" />
    <glyph glyph-name="uni0410" unicode="&#x410;" horiz-adv-x="488" 
d="M486 0h-188l-12 108h-86l-12 -108h-187l117 700h253zM241 484l-28 -254h60l-27 254h-5z" />
    <glyph glyph-name="uni0411" unicode="&#x411;" horiz-adv-x="501" 
d="M262 436q117 -1 172.5 -61.5t55.5 -162.5q0 -61 -28 -109t-77.5 -75.5t-112.5 -27.5h-237v700h389v-170h-203v-93zM242 153q26 0 43.5 18t17.5 59q0 36 -18 54t-44 18h-20v-149h21z" />
    <glyph glyph-name="uni0412" unicode="&#x412;" horiz-adv-x="485" 
d="M445 303.5q29 -42.5 29 -103.5q0 -94 -60.5 -147t-167.5 -53h-211v700h208q101 0 158.5 -47.5t57.5 -137.5q0 -52 -24.5 -92t-69.5 -59q51 -18 80 -60.5zM214 545v-127h6q64 0 64 59q0 37 -14 52.5t-49 15.5h-7zM228 155q35 0 52 16t17 51q0 67 -69 67h-14v-134h14z" />
    <glyph glyph-name="uni0413" unicode="&#x413;" horiz-adv-x="359" 
d="M35 0v700h314v-169h-123v-531h-191z" />
    <glyph glyph-name="uni0414" unicode="&#x414;" horiz-adv-x="605" 
d="M10 -120v295h56q14 18 23 79t10 199l3 247h429v-525h64v-295h-171v120h-243v-120h-171zM346 175v370h-59l-2 -105q-3 -169 -36 -265h97z" />
    <glyph glyph-name="uni0415" unicode="&#x415;" horiz-adv-x="392" 
d="M221 271v-101h156v-170h-342v700h337v-170h-151v-99h124v-160h-124z" />
    <glyph glyph-name="uni0416" unicode="&#x416;" horiz-adv-x="775" 
d="M768 0h-205l-68 265h-15v-265h-186v265h-15l-68 -265h-204l118 369l-115 331h208l60 -281h16v281h186v-281h17l59 281h209l-116 -333z" />
    <glyph glyph-name="uni0417" unicode="&#x417;" horiz-adv-x="387" 
d="M354.5 294.5q24.5 -44.5 24.5 -102.5q0 -61 -29 -108t-81.5 -72.5t-121.5 -25.5q-66 0 -137 16l24 170q15 -6 35 -10.5t38 -4.5q32 0 52 18t20 46q0 33 -18 48.5t-47 15.5h-47v145h52q22 0 40 13t18 38q0 31 -19 47t-53 16q-18 0 -32 -3.5t-34 -12.5l-24 165
q36 12 60.5 16t66.5 4q67 0 120 -25.5t82.5 -71.5t29.5 -105q0 -57 -23 -99t-61 -57q40 -16 64.5 -60.5z" />
    <glyph glyph-name="uni0418" unicode="&#x418;" horiz-adv-x="508" 
d="M473 700v-700h-179v310l-92 -310h-167v700h179v-298l86 298h173z" />
    <glyph glyph-name="uni0419" unicode="&#x419;" horiz-adv-x="508" 
d="M473 700v-700h-179v310l-92 -310h-167v700h179v-298l86 298h173zM397 883q0 -73 -36 -107.5t-107 -34.5t-106.5 34t-35.5 108l116 3q0 -24 6 -35.5t20 -11.5q28 0 28 47z" />
    <glyph glyph-name="uni041A" unicode="&#x41a;" horiz-adv-x="516" 
d="M510 0h-205l-68 265h-16v-265h-186v700h186v-281h18l59 281h209l-116 -333z" />
    <glyph glyph-name="uni041B" unicode="&#x41b;" horiz-adv-x="517" 
d="M10 156q8 -2 12 -2q14 0 21 18.5t10.5 60t5.5 125.5l10 342h412v-700h-185v545h-46l-6 -206q-4 -135 -21.5 -209.5t-55 -107.5t-105.5 -33q-14 0 -52 4v163z" />
    <glyph glyph-name="uni041C" unicode="&#x41c;" horiz-adv-x="565" 
d="M282 434l86 266h162v-700h-168v314l-51 -199h-58l-49 199v-314h-169v700h164z" />
    <glyph glyph-name="uni041D" unicode="&#x41d;" horiz-adv-x="521" 
d="M297 437v263h188v-700h-188v261h-73v-261h-189v700h189v-263h73z" />
    <glyph glyph-name="uni041E" unicode="&#x41e;" horiz-adv-x="516" 
d="M84.5 79.5q-62.5 92.5 -62.5 269.5q0 172 60 268t176 96q110 0 173 -92.5t63 -269.5q0 -172 -60.5 -268t-175.5 -96q-111 0 -173.5 92.5zM293 211q11 43 11 138q0 97 -10.5 140t-35.5 43q-24 0 -35 -42.5t-11 -139.5q0 -93 10.5 -137.5t35.5 -44.5q24 0 35 43z" />
    <glyph glyph-name="uni041F" unicode="&#x41f;" horiz-adv-x="510" 
d="M475 700v-700h-185v525h-69v-525h-186v700h440z" />
    <glyph glyph-name="uni0420" unicode="&#x420;" horiz-adv-x="486" 
d="M409 633q62 -67 62 -193q0 -122 -59.5 -192t-171.5 -70h-19v-178h-186v700h205q107 0 169 -67zM236 341q25 0 39 25.5t14 73.5q0 44 -14 70.5t-39 26.5h-15v-196h15z" />
    <glyph glyph-name="uni0421" unicode="&#x421;" horiz-adv-x="399" 
d="M89.5 79q-67.5 93 -67.5 270q0 176 65 270t189 94q44 0 109 -21l-24 -174q-19 8 -34 11t-33 3q-39 0 -58.5 -41.5t-19.5 -140.5q0 -97 19 -140t59 -43q38 0 69 14l26 -173q-19 -8 -51.5 -15t-59.5 -7q-121 0 -188.5 93z" />
    <glyph glyph-name="uni0422" unicode="&#x422;" horiz-adv-x="392" 
d="M10 700h372v-175h-93v-525h-186v525h-93v175z" />
    <glyph glyph-name="uni0423" unicode="&#x423;" horiz-adv-x="456" 
d="M451 700l-137 -535v-1l-8 -29q-18 -68 -63 -107t-111 -39q-28 0 -55 5.5t-45 16.5l24 163q41 -17 57 -17q11 0 16.5 6t8.5 23v2l-133 512h190l35 -303l34 303h187z" />
    <glyph glyph-name="uni0424" unicode="&#x424;" horiz-adv-x="693" 
d="M640.5 208.5q-29.5 -63.5 -82 -100.5t-119.5 -41v-67h-186v67q-69 4 -121.5 41.5t-81 100t-28.5 140.5q0 77 28.5 140.5t80.5 101.5t122 42v67h186v-67q67 -3 119.5 -39.5t82 -99.5t29.5 -143q0 -79 -29.5 -142.5zM439 220q20 5 31.5 39.5t11.5 89.5q0 57 -11.5 92
t-31.5 39v-260zM221.5 259.5q11.5 -35.5 31.5 -39.5v260q-20 -4 -31.5 -38.5t-11.5 -91.5q0 -55 11.5 -90.5z" />
    <glyph glyph-name="uni0425" unicode="&#x425;" horiz-adv-x="490" 
d="M381 348l102 -348h-195l-44 225l-41 -225h-196l98 347l-92 353h192l38 -217l38 217h192z" />
    <glyph glyph-name="uni0426" unicode="&#x426;" horiz-adv-x="549" 
d="M368 0h-333v700h186v-525h69v525h185v-525h64v-295h-171v120z" />
    <glyph glyph-name="uni0427" unicode="&#x427;" horiz-adv-x="523" 
d="M302 700h185v-700h-185v225q-74 -30 -116 -30q-77 0 -116.5 57.5t-39.5 169.5v278h185v-277q0 -36 8 -52t27 -16q13 0 27.5 4.5t24.5 11.5v329z" />
    <glyph glyph-name="uni0428" unicode="&#x428;" horiz-adv-x="734" 
d="M698 0h-663v700h186v-525h53v525h186v-525h53v525h185v-700z" />
    <glyph glyph-name="uni0429" unicode="&#x429;" horiz-adv-x="772" 
d="M698 700v-525h64v-295h-170v120h-557v700h186v-525h53v525h186v-525h53v525h185z" />
    <glyph glyph-name="uni042A" unicode="&#x42a;" horiz-adv-x="542" 
d="M296 522q112 0 171 -70t59 -192q0 -126 -62 -193t-169 -67h-205v525h-80v175h266v-178h20zM291 163q25 0 39 26.5t14 71.5q0 48 -14 73t-39 25h-15v-196h15z" />
    <glyph glyph-name="uni042B" unicode="&#x42b;" horiz-adv-x="743" 
d="M241 522q112 0 171 -70t59 -192q0 -126 -62 -193t-169 -67h-205v700h186v-178h20zM236 163q25 0 39 26.5t14 71.5q0 48 -14 73t-39 25h-15v-196h15zM708 0h-187v700h187v-700z" />
    <glyph glyph-name="uni042C" unicode="&#x42c;" horiz-adv-x="486" 
d="M241 522q112 0 171 -70t59 -192q0 -126 -62 -193t-169 -67h-205v700h186v-178h20zM236 163q25 0 39 26.5t14 71.5q0 48 -14 73t-39 25h-15v-196h15z" />
    <glyph glyph-name="uni042D" unicode="&#x42d;" horiz-adv-x="399" 
d="M312 619q65 -94 65 -270q0 -177 -67.5 -270t-188.5 -93q-28 0 -60.5 7t-50.5 15l26 173q31 -14 68 -14q33 0 51.5 27t24.5 87h-116v136h116q-6 62 -24.5 88.5t-50.5 26.5q-18 0 -33 -3t-35 -11l-24 174q66 21 110 21q124 0 189 -94z" />
    <glyph glyph-name="uni042E" unicode="&#x42e;" horiz-adv-x="728" 
d="M643.5 620q62.5 -93 62.5 -269q0 -173 -60.5 -268.5t-177.5 -95.5q-98 0 -155 72t-69 212h-23v-271h-186v700h186v-275h23q12 139 67.5 213.5t156.5 74.5q113 0 175.5 -93zM504.5 193q11.5 48 11.5 156q0 109 -11.5 158t-36.5 49q-24 0 -35.5 -48.5t-11.5 -157.5t11 -157
t36 -48t36.5 48z" />
    <glyph glyph-name="uni042F" unicode="&#x42f;" horiz-adv-x="485" 
d="M450 700v-700h-186v201h-18l-48 -201h-192l81 255q-36 33 -54.5 83.5t-18.5 114.5q0 119 62 183t169 64h205zM264 366v171h-15q-25 0 -39 -23t-14 -63q0 -42 14 -63.5t39 -21.5h15z" />
    <glyph glyph-name="uni0430" unicode="&#x430;" horiz-adv-x="446" 
d="M366 510q52 -61 52 -165v-345h-177v71q-17 -42 -44 -63t-59 -21q-127 0 -127 179q0 81 39 124.5t118 43.5q29 0 73 -4v14q0 38 -14.5 56.5t-48.5 18.5q-23 0 -53.5 -7t-55.5 -17l-16 149q37 13 71.5 20t81.5 7q108 0 160 -61zM241 237v6q-12 2 -23 2q-17 0 -25.5 -14.5
t-8.5 -42.5q0 -27 6.5 -43t18.5 -16q32 0 32 108z" />
    <glyph glyph-name="uni0431" unicode="&#x431;" horiz-adv-x="455" 
d="M133 18q-44 31 -73.5 89t-38.5 136q-5 45 -5 87q0 131 33 204t82 104t131 58q7 3 37.5 13.5t55.5 22t45 24.5l18 -157q-32 -25 -59.5 -37t-62.5 -23q-33 -10 -49.5 -19t-29.5 -31t-22 -65q45 57 104 57q64 0 102 -65t38 -176q0 -76 -26 -133.5t-73.5 -88.5t-110.5 -31
q-52 0 -96 31zM250.5 163.5q6.5 23.5 6.5 75.5q0 47 -6 70t-21 23q-32 0 -32 -93q0 -99 32 -99q14 0 20.5 23.5z" />
    <glyph glyph-name="uni0432" unicode="&#x432;" horiz-adv-x="450" 
d="M406.5 245.5q27.5 -31.5 27.5 -80.5q0 -77 -53.5 -121t-153.5 -44h-196v557h186q90 0 142.5 -37t52.5 -107q0 -43 -21 -74.5t-61 -47.5q49 -14 76.5 -45.5zM206 424v-99h5q20 0 30.5 12.5t10.5 37.5q0 22 -9.5 35.5t-27.5 13.5h-9zM219 134q20 0 31.5 13t11.5 37
q0 53 -44 53h-12v-103h13z" />
    <glyph glyph-name="uni0433" unicode="&#x433;" horiz-adv-x="305" 
d="M31 -1v558h269v-151h-92v-407h-177z" />
    <glyph glyph-name="uni0434" unicode="&#x434;" horiz-adv-x="542" 
d="M476 154h62v-253h-171v99h-191v-99h-171v253h34q16 12 27.5 44.5t12.5 83.5l7 275h390v-403zM299 154v250h-42l-3 -114q-1 -79 -21 -136h66z" />
    <glyph glyph-name="uni0435" unicode="&#x435;" horiz-adv-x="441" 
d="M191 230q5 -49 20.5 -71t45.5 -22q54 0 106 27l27 -141q-27 -16 -68 -26t-83 -10q-104 0 -163.5 78t-59.5 215q0 133 55 211.5t157 78.5q92 0 144.5 -70.5t52.5 -194.5q0 -32 -10 -75h-224zM254 324q0 51 -7 75.5t-23 24.5q-17 0 -24.5 -24.5t-9.5 -75.5h64z" />
    <glyph glyph-name="uni0436" unicode="&#x436;" horiz-adv-x="690" 
d="M686 0h-195l-43 198h-14v-198h-177v198h-15l-43 -198h-195l97 296l-90 261h195l36 -203h15v203h177v-203h13l36 203h195l-89 -261z" />
    <glyph glyph-name="uni0437" unicode="&#x437;" horiz-adv-x="320" 
d="M7 -2l22 151q10 -5 25 -8t28 -3q22 0 35.5 11t13.5 30q0 17 -12 28t-31 11h-35v129h41q17 0 27 9t10 24q0 17 -14 27.5t-37 10.5q-25 0 -47 -9l-21 146q55 11 102 11q54 0 97.5 -20.5t68 -57t24.5 -84.5q0 -43 -18 -77t-49 -48q32 -13 51.5 -47.5t19.5 -79.5
q0 -47 -24 -84.5t-67 -58.5t-99 -21q-47 0 -111 10z" />
    <glyph glyph-name="uni0438" unicode="&#x438;" horiz-adv-x="471" 
d="M440 557v-557h-177v209l-65 -209h-167v557h177v-198l60 198h172z" />
    <glyph glyph-name="uni0439" unicode="&#x439;" horiz-adv-x="471" 
d="M440 557v-557h-177v209l-65 -209h-167v557h177v-198l60 198h172zM378 740q0 -73 -36 -107.5t-107 -34.5t-106.5 34t-35.5 108l116 3q0 -24 6 -35.5t20 -11.5q28 0 28 47z" />
    <glyph glyph-name="uni043A" unicode="&#x43a;" horiz-adv-x="465" 
d="M461 0h-195l-43 198h-15v-198h-177v557h177v-203h15l36 203h195l-90 -262z" />
    <glyph glyph-name="uni043B" unicode="&#x43b;" horiz-adv-x="477" 
d="M446 0h-177v404h-38l-7 -184q-4 -113 -41 -170t-123 -57q-22 0 -55 5l1 145q4 -1 10 -1q18 0 23.5 19.5t7.5 66.5l13 329h386v-557z" />
    <glyph glyph-name="uni043C" unicode="&#x43c;" horiz-adv-x="517" 
d="M259 383l45 174h182v-557h-177v218l-33 -130h-36l-32 130v-218h-177v557h182z" />
    <glyph glyph-name="uni043D" unicode="&#x43d;" horiz-adv-x="467" 
d="M258 357v200h177v-557h-177v207h-50v-207h-177v557h177v-200h50z" />
    <glyph glyph-name="uni043E" unicode="&#x43e;" horiz-adv-x="464" 
d="M73.5 62q-57.5 76 -57.5 218q0 136 56 213.5t161 77.5q101 0 158 -75t57 -215q0 -138 -55.5 -216.5t-160.5 -78.5q-101 0 -158.5 76zM258 182.5q8 30.5 8 97.5q0 66 -8 96t-26 30q-19 0 -27 -29.5t-8 -95.5q0 -68 8.5 -98.5t27.5 -30.5q17 0 25 30.5z" />
    <glyph glyph-name="uni043F" unicode="&#x43f;" horiz-adv-x="468" 
d="M437 557v-558h-177v405h-52v-405h-177v558h406z" />
    <glyph glyph-name="uni0440" unicode="&#x440;" horiz-adv-x="479" 
d="M31 -172v729h178v-40q42 53 98 53q73 0 114.5 -77.5t41.5 -216.5q0 -137 -42 -213t-116 -76q-57 0 -96 53v-212h-178zM271.5 181.5q8.5 32.5 8.5 94.5q0 131 -34 131q-17 0 -27 -36t-10 -94t10 -93t27 -35t25.5 32.5z" />
    <glyph glyph-name="uni0441" unicode="&#x441;" horiz-adv-x="341" 
d="M75 64q-59 78 -59 215q0 136 59 213.5t170 77.5q38 0 88 -14l-23 -160q-28 12 -50 12q-30 0 -47 -33t-17 -95q0 -63 16.5 -96.5t46.5 -33.5q27 0 51 11l24 -160q-50 -15 -88 -15q-112 0 -171 78z" />
    <glyph glyph-name="uni0442" unicode="&#x442;" horiz-adv-x="348" 
d="M9 557h330v-151h-76v-406h-178v406h-76v151z" />
    <glyph glyph-name="uni0443" unicode="&#x443;" horiz-adv-x="455" 
d="M29 -168l19 136q32 -7 64 -7q21 0 37 12.5t23 41.5l3 10h-43l-128 534h181l41 -342h3l40 342h182l-101 -518q-17 -86 -44 -135t-68 -70t-103 -21q-57 0 -106 17z" />
    <glyph glyph-name="uni0444" unicode="&#x444;" horiz-adv-x="673" 
d="M628.5 127.5q-28.5 -66.5 -81 -103.5t-122.5 -38v-157h-177v157q-66 1 -118.5 35t-83 100t-30.5 159q0 86 28.5 151.5t81 101.5t122.5 37v130h177v-130q67 -1 119.5 -34.5t82.5 -98t30 -156.5q0 -87 -28.5 -153.5zM248 152v254q-51 -5 -51 -125q0 -123 51 -129zM425 152
q24 2 37.5 33.5t13.5 94.5q0 57 -12.5 90t-38.5 36v-254z" />
    <glyph glyph-name="uni0445" unicode="&#x445;" horiz-adv-x="460" 
d="M357 273l100 -273h-189l-39 156l-36 -156h-189l98 273l-91 284h185l33 -153l34 153h184z" />
    <glyph glyph-name="uni0446" unicode="&#x446;" horiz-adv-x="504" 
d="M437 556v-403h62v-253h-171v98h-297v558h177v-404h52v404h177z" />
    <glyph glyph-name="uni0447" unicode="&#x447;" horiz-adv-x="456" 
d="M248 554h177v-554h-177v185q-60 -36 -106 -36q-55 0 -86 51.5t-31 148.5v205h177v-186q0 -23 6 -36t16 -13q11 0 24 14v221z" />
    <glyph glyph-name="uni0448" unicode="&#x448;" horiz-adv-x="687" 
d="M479 154v403h177v-557h-625v557h177v-403h47v403h177v-403h47z" />
    <glyph glyph-name="uni0449" unicode="&#x449;" horiz-adv-x="722" 
d="M656 557v-403h62v-253h-171v99h-516v557h177v-403h47v403h177v-403h47v403h177z" />
    <glyph glyph-name="uni044A" unicode="&#x44a;" horiz-adv-x="514" 
d="M284 433q98 0 156 -57t58 -158t-56 -159.5t-159 -58.5h-191v412h-83v145h260v-124h15zM279 150q18 0 29 17.5t11 50.5t-10.5 51t-29.5 18h-10v-137h10z" />
    <glyph glyph-name="uni044B" unicode="&#x44b;" horiz-adv-x="698" 
d="M223 432q99 0 156.5 -56.5t57.5 -157.5q0 -102 -55.5 -160t-159.5 -58h-191v557h177v-125h15zM218 149q19 0 30 18t11 51t-10.5 50.5t-30.5 17.5h-10v-137h10zM667 0h-178v557h178v-557z" />
    <glyph glyph-name="uni044C" unicode="&#x44c;" horiz-adv-x="449" 
d="M223 432q99 0 156.5 -56.5t57.5 -157.5q0 -102 -55.5 -160t-159.5 -58h-191v557h177v-125h15zM218 149q19 0 30 18t11 51t-10.5 50.5t-30.5 17.5h-10v-137h10z" />
    <glyph glyph-name="uni044D" unicode="&#x44d;" horiz-adv-x="341" 
d="M266 492.5q59 -77.5 59 -213.5q0 -137 -59 -215t-171 -78q-38 0 -88 15l24 160q23 -11 51 -11q22 0 37.5 20t21.5 58h-109v105h109q-7 36 -22.5 55.5t-37.5 19.5t-50 -12l-23 160q50 14 88 14q111 0 170 -77.5z" />
    <glyph glyph-name="uni044E" unicode="&#x44e;" horiz-adv-x="701" 
d="M627.5 495.5q57.5 -74.5 57.5 -214.5q0 -136 -56 -215.5t-160 -79.5q-85 0 -140.5 56t-70.5 162h-50v-204h-177v557h177v-201h50q15 101 69 157.5t143 56.5q100 0 157.5 -74.5zM495 182.5q8 30.5 8 97.5q0 66 -8 96t-26 30t-26.5 -29.5t-8.5 -95.5q0 -68 8.5 -98.5
t27.5 -30.5q17 0 25 30.5z" />
    <glyph glyph-name="uni044F" unicode="&#x44f;" horiz-adv-x="440" 
d="M409 557v-557h-174v159h-16l-29 -159h-183l60 209q-53 51 -53 146q0 98 54.5 150t149.5 52h191zM235 293v114h-13q-18 0 -27 -15t-9 -39q0 -60 36 -60h13z" />
    <glyph glyph-name="uni0450" unicode="&#x450;" horiz-adv-x="441" 
d="M194 230q5 -50 19 -71.5t44 -21.5q55 0 106 27l27 -141q-27 -16 -68.5 -26t-83.5 -10q-105 0 -163.5 77.5t-58.5 215.5q0 134 56.5 212t164.5 78q92 0 140 -67t48 -182q0 -39 -14 -91h-217zM258 324q1 51 -6.5 75t-24.5 24t-24.5 -24t-9.5 -75h65zM282 609l-107 -8
l-98 142l145 20z" />
    <glyph glyph-name="uni0451" unicode="&#x451;" horiz-adv-x="441" 
d="M194 230q5 -50 19 -71.5t44 -21.5q55 0 106 27l27 -141q-27 -16 -68.5 -26t-83.5 -10q-105 0 -163.5 77.5t-58.5 215.5q0 134 56.5 212t164.5 78q92 0 140 -67t48 -182q0 -39 -14 -91h-217zM258 324q1 51 -6.5 75t-24.5 24t-24.5 -24t-9.5 -75h65zM204 602h-125v136h125
v-136zM372 602h-125v136h125v-136z" />
    <glyph glyph-name="uni0452" unicode="&#x452;" horiz-adv-x="513" 
d="M453 523.5q30 -46.5 30 -141.5v-384q0 -81 -40.5 -131t-133.5 -50q-20 0 -46 5.5t-44 12.5l19 148q22 -8 38 -8q13 0 21 8.5t8 25.5v339q0 54 -23 54q-13 0 -21.5 -22.5t-8.5 -73.5v-306h-178v588h-48v86h48v64h178v-64h66v-86h-66v-92q18 35 47 54.5t67 19.5
q57 0 87 -46.5z" />
    <glyph glyph-name="uni0453" unicode="&#x453;" horiz-adv-x="305" 
d="M31 -1v558h269v-151h-92v-407h-177zM298 743l-97 -142l-108 8l61 154z" />
    <glyph glyph-name="uni0454" unicode="&#x454;" horiz-adv-x="341" 
d="M334 1q-50 -15 -88 -15q-112 0 -171 78t-59 215q0 136 59 213.5t170 77.5q38 0 88 -14l-23 -160q-28 12 -50 12q-23 0 -38 -19t-22 -56h108v-105h-108q6 -39 21 -58.5t38 -19.5q27 0 51 11z" />
    <glyph glyph-name="uni0455" unicode="&#x455;" horiz-adv-x="339" 
d="M82.5 -8q-31.5 5 -71.5 17l22 156q20 -11 44.5 -17.5t42.5 -6.5q26 0 26 27q0 11 -10 22t-36 33q-42 36 -63 73.5t-21 103.5q0 55 24 93.5t64 57.5t86 19q67 0 120 -20l-21 -156q-24 12 -39.5 16.5t-30.5 4.5q-16 0 -23 -7.5t-7 -21.5q0 -12 9 -22.5t20 -19.5t15 -13
q45 -39 69.5 -77t24.5 -99q0 -76 -48 -122t-126 -46q-39 0 -70.5 5z" />
    <glyph glyph-name="uni0456" unicode="&#x456;" horiz-adv-x="240" 
d="M209 0h-178v557h178v-557zM211 602h-184v136h184v-136z" />
    <glyph glyph-name="uni0457" unicode="&#x457;" horiz-adv-x="240" 
d="M209 0h-178v557h178v-557zM99 602h-125v136h125v-136zM267 602h-125v136h125v-136z" />
    <glyph glyph-name="uni0458" unicode="&#x458;" horiz-adv-x="243" 
d="M-14 -39q8 1 24 1q12 0 18 13.5t6 43.5v538h178v-538q0 -107 -42 -154t-137 -47q-27 0 -48 8zM213 602h-184v136h184v-136z" />
    <glyph glyph-name="uni0459" unicode="&#x459;" horiz-adv-x="686" 
d="M461 418q100 0 154.5 -54t54.5 -151q0 -102 -57.5 -157.5t-152.5 -55.5h-191v404h-38l-7 -184q-4 -113 -41 -170t-123 -57q-22 0 -55 5l1 145q4 -1 10 -1q18 0 23.5 19.5t7.5 66.5l13 329h386v-139h15zM456 149q36 0 36 64q0 67 -36 67h-10v-131h10z" />
    <glyph glyph-name="uni045A" unicode="&#x45a;" horiz-adv-x="680" 
d="M450 402q99 0 156.5 -50.5t57.5 -143.5q0 -96 -56 -152t-159 -56h-191v257h-50v-257h-177v557h177v-158h50v158h177v-155h15zM445 149q18 0 29.5 15.5t11.5 43.5q0 22 -11 35t-30 13h-10v-107h10z" />
    <glyph glyph-name="uni045B" unicode="&#x45b;" horiz-adv-x="471" 
d="M413 523.5q30 -46.5 30 -141.5v-382h-178v348q0 54 -24 54q-13 0 -21.5 -22.5t-8.5 -73.5v-306h-178v588h-47v86h47v64h178v-64h66v-86h-66v-93q18 35 47 55t68 20q57 0 87 -46.5z" />
    <glyph glyph-name="uni045C" unicode="&#x45c;" horiz-adv-x="465" 
d="M461 0h-195l-43 198h-15v-198h-177v557h177v-203h15l36 203h195l-90 -262zM374 743l-97 -142l-108 8l61 154z" />
    <glyph glyph-name="uni045D" unicode="&#x45d;" horiz-adv-x="471" 
d="M440 557v-557h-177v209l-65 -209h-167v557h177v-198l60 198h172zM291 609l-107 -8l-98 142l145 20z" />
    <glyph glyph-name="uni045E" unicode="&#x45e;" horiz-adv-x="455" 
d="M29 -168l19 136q32 -7 64 -7q21 0 37 12.5t23 41.5l3 10h-43l-128 534h181l41 -342h3l40 342h182l-101 -518q-17 -86 -44 -135t-68 -70t-103 -21q-57 0 -106 17zM371 740q0 -73 -36 -107.5t-107 -34.5t-106.5 34t-35.5 108l116 3q0 -24 6 -35.5t20 -11.5q28 0 28 47z" />
    <glyph glyph-name="uni045F" unicode="&#x45f;" horiz-adv-x="468" 
d="M260 558h177v-558h-114v-122h-177v122h-115v558h177v-405h52v405z" />
    <glyph glyph-name="uni0474" unicode="&#x474;" horiz-adv-x="492" 
d="M116 0l-111 700h183l46 -473h7l25 285q15 202 214 202v-188q-41 -1 -49 -53l-75 -473h-240z" />
    <glyph glyph-name="uni0474" unicode="&#x475;" horiz-adv-x="492" 
d="M116 0l-111 700h183l46 -473h7l25 285q15 202 214 202v-188q-41 -1 -49 -53l-75 -473h-240z" />
    <glyph glyph-name="uni0490" unicode="&#x490;" horiz-adv-x="359" 
d="M181 700v101h168v-270h-123v-531h-191v700h146z" />
    <glyph glyph-name="uni0491" unicode="&#x491;" horiz-adv-x="305" 
d="M145 557v98h155v-250h-92v-406h-177v558h114z" />
    <glyph glyph-name="uni04D9" unicode="&#x4d9;" horiz-adv-x="441" 
d="M365.5 492q59.5 -78 59.5 -215q0 -133 -55 -211.5t-157 -78.5q-92 0 -144.5 70.5t-52.5 194.5q0 32 10 75h224q-5 49 -20.5 71t-45.5 22q-54 0 -106 -27l-27 141q27 16 68 26t83 10q104 0 163.5 -78zM241.5 157.5q7.5 24.5 9.5 75.5h-64q0 -51 7 -75.5t23 -24.5
q17 0 24.5 24.5z" />
    <glyph glyph-name="uni1E0C" unicode="&#x1e0c;" horiz-adv-x="518" 
d="M35 0v700h210q120 0 185.5 -91.5t65.5 -256.5q0 -167 -65.5 -259.5t-185.5 -92.5h-210zM237 175q36 0 52 40.5t16 135.5q0 93 -16 133.5t-52 40.5h-16v-350h16zM142 -177v136h166v-136h-166z" />
    <glyph glyph-name="uni1E0D" unicode="&#x1e0d;" horiz-adv-x="482" 
d="M58 64.5q-41 77.5 -41 216.5q0 137 42 213t116 76q57 0 95 -53v221h179v-738h-179v40q-40 -53 -97 -53q-74 0 -115 77.5zM260 185.5q10 34.5 10 91.5q0 60 -9.5 95.5t-26.5 35.5t-25.5 -32.5t-8.5 -94.5q0 -130 34 -130q16 0 26 34.5zM179 -177v136h166v-136h-166z" />
    <glyph glyph-name="uni1E0E" unicode="&#x1e0e;" horiz-adv-x="518" 
d="M35 0v700h210q120 0 185.5 -91.5t65.5 -256.5q0 -167 -65.5 -259.5t-185.5 -92.5h-210zM237 175q36 0 52 40.5t16 135.5q0 93 -16 133.5t-52 40.5h-16v-350h16zM365 -153h-280v99h280v-99z" />
    <glyph glyph-name="uni1E0F" unicode="&#x1e0f;" horiz-adv-x="482" 
d="M58 64.5q-41 77.5 -41 216.5q0 137 42 213t116 76q57 0 95 -53v221h179v-738h-179v40q-40 -53 -97 -53q-74 0 -115 77.5zM260 185.5q10 34.5 10 91.5q0 60 -9.5 95.5t-26.5 35.5t-25.5 -32.5t-8.5 -94.5q0 -130 34 -130q16 0 26 34.5zM402 -153h-280v99h280v-99z" />
    <glyph glyph-name="uni1E20" unicode="&#x1e20;" horiz-adv-x="480" 
d="M263 396h192v-347q-46 -31 -89 -47t-101 -16q-120 0 -181.5 91t-61.5 272q0 177 66.5 270.5t189.5 93.5q66 0 131 -23l-25 -179q-22 11 -45 17t-40 6q-48 0 -69 -44t-21 -142q0 -192 58 -192q12 0 28 7v86h-32v147zM416 748h-280v99h280v-99z" />
    <glyph glyph-name="uni1E21" unicode="&#x1e21;" horiz-adv-x="445" 
d="M271 149q86 0 133 -38.5t47 -113.5q0 -85 -62 -133t-177 -48q-187 0 -187 141q0 29 15.5 54t39.5 44q-55 21 -55 88q0 28 15 52.5t38 42.5q-55 50 -55 144q0 86 55 137.5t148 51.5q54 0 88 -17l99 38l30 -116l-44 -9q29 -41 29 -85q0 -90 -51.5 -141.5t-149.5 -51.5
q-12 0 -32 2q-8 -11 -8 -20q0 -11 10.5 -16.5t23.5 -5.5h50zM207.5 428.5q-6.5 -16.5 -6.5 -45.5q0 -68 25 -68q12 0 18 18t6 49q0 29 -6 46t-18 17t-18.5 -16.5zM253.5 -43q9.5 14 9.5 40q0 47 -38 47h-12q-14 -22 -14 -49q0 -52 30 -52q15 0 24.5 14zM365 625h-280v99h280
v-99z" />
    <glyph glyph-name="uni1E24" unicode="&#x1e24;" horiz-adv-x="521" 
d="M297 437v263h188v-700h-188v261h-73v-261h-189v700h189v-263h73zM177 -177v136h166v-136h-166z" />
    <glyph glyph-name="uni1E25" unicode="&#x1e25;" horiz-adv-x="471" 
d="M413 523.5q30 -46.5 30 -141.5v-382h-178v348q0 54 -24 54q-13 0 -21.5 -22.5t-8.5 -73.5v-306h-178v738h178v-243q18 35 47 55t68 20q57 0 87 -46.5zM155 -177v136h166v-136h-166z" />
    <glyph glyph-name="uni1E2A" unicode="&#x1e2a;" horiz-adv-x="521" 
d="M297 437v263h188v-700h-188v261h-73v-261h-189v700h189v-263h73zM375 -36q0 -55 -28.5 -81t-86.5 -26q-57 0 -86 25.5t-29 81.5l93 2q0 -36 22 -36t22 36z" />
    <glyph glyph-name="uni1E2B" unicode="&#x1e2b;" horiz-adv-x="471" 
d="M413 523.5q30 -46.5 30 -141.5v-382h-178v348q0 54 -24 54q-13 0 -21.5 -22.5t-8.5 -73.5v-306h-178v738h178v-243q18 35 47 55t68 20q57 0 87 -46.5zM353 -36q0 -55 -28.5 -81t-86.5 -26q-57 0 -86 25.5t-29 81.5l93 2q0 -36 22 -36t22 36z" />
    <glyph glyph-name="uni1E36" unicode="&#x1e36;" horiz-adv-x="363" 
d="M349 0h-314v700h191v-531h123v-169zM104 -177v136h166v-136h-166z" />
    <glyph glyph-name="uni1E37" unicode="&#x1e37;" horiz-adv-x="244" 
d="M211 0h-178v738h178v-738zM49 -177v136h166v-136h-166z" />
    <glyph glyph-name="uni1E38" unicode="&#x1e38;" horiz-adv-x="363" 
d="M349 0h-314v700h191v-531h123v-169zM104 -177v136h166v-136h-166zM275 748h-280v99h280v-99z" />
    <glyph glyph-name="uni1E39" unicode="&#x1e39;" horiz-adv-x="244" 
d="M211 0h-178v738h178v-738zM49 -177v136h166v-136h-166zM272 786h-280v99h280v-99z" />
    <glyph glyph-name="uni1E3A" unicode="&#x1e3a;" horiz-adv-x="363" 
d="M349 0h-314v700h191v-531h123v-169zM327 -153h-280v99h280v-99z" />
    <glyph glyph-name="uni1E3B" unicode="&#x1e3b;" horiz-adv-x="244" 
d="M211 0h-178v738h178v-738zM272 -153h-280v99h280v-99z" />
    <glyph glyph-name="uni1E42" unicode="&#x1e42;" horiz-adv-x="588" 
d="M369 700h174l21 -700h-169l-11 304l-54 -304h-74l-52 304l-11 -304h-168l21 700h166l82 -344zM212 -177v136h166v-136h-166z" />
    <glyph glyph-name="uni1E43" unicode="&#x1e43;" horiz-adv-x="692" 
d="M633.5 528q30.5 -42 30.5 -133v-395h-178v354q0 48 -20 48q-24 0 -29 -58v-344h-178v354q0 48 -20 48q-13 0 -22 -19.5t-9 -64.5v-318h-177v557h177v-36q42 49 107 49q79 0 106 -69q20 33 51 51t70 18q61 0 91.5 -42zM263 -177v136h166v-136h-166z" />
    <glyph glyph-name="uni1E44" unicode="&#x1e44;" horiz-adv-x="508" 
d="M213 0h-178v700h172l87 -298v298h179v-700h-168l-92 310v-310zM345 739h-184v132h184v-132z" />
    <glyph glyph-name="uni1E45" unicode="&#x1e45;" horiz-adv-x="468" 
d="M410 523.5q30 -46.5 30 -141.5v-382h-178v348q0 54 -23 54q-8 0 -16.5 -8.5t-14.5 -24.5v-369h-177v557h177v-64q18 36 47 56.5t68 20.5q57 0 87 -46.5zM328 602h-184v136h184v-136z" />
    <glyph glyph-name="uni1E46" unicode="&#x1e46;" horiz-adv-x="508" 
d="M213 0h-178v700h172l87 -298v298h179v-700h-168l-92 310v-310zM171 -177v136h166v-136h-166z" />
    <glyph glyph-name="uni1E47" unicode="&#x1e47;" horiz-adv-x="468" 
d="M410 523.5q30 -46.5 30 -141.5v-382h-178v348q0 54 -23 54q-8 0 -16.5 -8.5t-14.5 -24.5v-369h-177v557h177v-64q18 36 47 56.5t68 20.5q57 0 87 -46.5zM155 -177v136h166v-136h-166z" />
    <glyph glyph-name="uni1E48" unicode="&#x1e48;" horiz-adv-x="508" 
d="M213 0h-178v700h172l87 -298v298h179v-700h-168l-92 310v-310zM394 -153h-280v99h280v-99z" />
    <glyph glyph-name="uni1E49" unicode="&#x1e49;" horiz-adv-x="468" 
d="M410 523.5q30 -46.5 30 -141.5v-382h-178v348q0 54 -23 54q-8 0 -16.5 -8.5t-14.5 -24.5v-369h-177v557h177v-64q18 36 47 56.5t68 20.5q57 0 87 -46.5zM378 -153h-280v99h280v-99z" />
    <glyph glyph-name="uni1E5A" unicode="&#x1e5a;" horiz-adv-x="485" 
d="M287 0l-48 201h-18v-201h-186v700h205q107 0 169 -64t62 -183q0 -64 -18.5 -114.5t-54.5 -83.5l81 -255h-192zM221 537v-171h15q25 0 39 21.5t14 63.5q0 40 -14 63t-39 23h-15zM170 -177v136h166v-136h-166z" />
    <glyph glyph-name="uni1E5B" unicode="&#x1e5b;" horiz-adv-x="310" 
d="M293 565.5q8 -1.5 12 -3.5l-9 -186q-18 7 -38 7q-49 0 -49 -131v-252h-178v557h178v-45q30 55 72 55q4 0 12 -1.5zM38 -177v136h166v-136h-166z" />
    <glyph glyph-name="uni1E5C" unicode="&#x1e5c;" horiz-adv-x="485" 
d="M287 0l-48 201h-18v-201h-186v700h205q107 0 169 -64t62 -183q0 -64 -18.5 -114.5t-54.5 -83.5l81 -255h-192zM221 537v-171h15q25 0 39 21.5t14 63.5q0 40 -14 63t-39 23h-15zM170 -177v136h166v-136h-166zM386 748h-280v99h280v-99z" />
    <glyph glyph-name="uni1E5D" unicode="&#x1e5d;" horiz-adv-x="310" 
d="M293 565.5q8 -1.5 12 -3.5l-9 -186q-18 7 -38 7q-49 0 -49 -131v-252h-178v557h178v-45q30 55 72 55q4 0 12 -1.5zM38 -177v136h166v-136h-166zM295 616h-280v99h280v-99z" />
    <glyph glyph-name="uni1E5E" unicode="&#x1e5e;" horiz-adv-x="485" 
d="M287 0l-48 201h-18v-201h-186v700h205q107 0 169 -64t62 -183q0 -64 -18.5 -114.5t-54.5 -83.5l81 -255h-192zM221 537v-171h15q25 0 39 21.5t14 63.5q0 40 -14 63t-39 23h-15zM392 -153h-280v99h280v-99z" />
    <glyph glyph-name="uni1E5F" unicode="&#x1e5f;" horiz-adv-x="310" 
d="M293 565.5q8 -1.5 12 -3.5l-9 -186q-18 7 -38 7q-49 0 -49 -131v-252h-178v557h178v-45q30 55 72 55q4 0 12 -1.5zM261 -153h-280v99h280v-99z" />
    <glyph glyph-name="uni1E60" unicode="&#x1e60;" horiz-adv-x="375" 
d="M81 -7q-35 7 -73 22l23 157q42 -19 84 -19q27 0 40.5 11.5t13.5 35.5q0 15 -12.5 34t-40.5 52q-45 57 -73 108t-28 107q0 99 52 156t149 57q31 0 70 -6.5t64 -16.5l-22 -164q-33 18 -63 18q-25 0 -38.5 -13t-13.5 -36q0 -20 13 -39.5t44 -56.5q44 -54 70.5 -105
t26.5 -113q0 -89 -55.5 -142.5t-146.5 -53.5q-49 0 -84 7zM304 739h-184v132h184v-132z" />
    <glyph glyph-name="uni1E61" unicode="&#x1e61;" horiz-adv-x="339" 
d="M82.5 -8q-31.5 5 -71.5 17l22 156q20 -11 44.5 -17.5t42.5 -6.5q26 0 26 27q0 11 -10 22t-36 33q-42 36 -63 73.5t-21 103.5q0 55 24 93.5t64 57.5t86 19q67 0 120 -20l-21 -156q-24 12 -39.5 16.5t-30.5 4.5q-16 0 -23 -7.5t-7 -21.5q0 -12 9 -22.5t20 -19.5t15 -13
q45 -39 69.5 -77t24.5 -99q0 -76 -48 -122t-126 -46q-39 0 -70.5 5zM274 602h-184v136h184v-136z" />
    <glyph glyph-name="uni1E62" unicode="&#x1e62;" horiz-adv-x="375" 
d="M81 -7q-35 7 -73 22l23 157q42 -19 84 -19q27 0 40.5 11.5t13.5 35.5q0 15 -12.5 34t-40.5 52q-45 57 -73 108t-28 107q0 99 52 156t149 57q31 0 70 -6.5t64 -16.5l-22 -164q-33 18 -63 18q-25 0 -38.5 -13t-13.5 -36q0 -20 13 -39.5t44 -56.5q44 -54 70.5 -105
t26.5 -113q0 -89 -55.5 -142.5t-146.5 -53.5q-49 0 -84 7zM101 -177v136h166v-136h-166z" />
    <glyph glyph-name="uni1E63" unicode="&#x1e63;" horiz-adv-x="339" 
d="M82.5 -8q-31.5 5 -71.5 17l22 156q20 -11 44.5 -17.5t42.5 -6.5q26 0 26 27q0 11 -10 22t-36 33q-42 36 -63 73.5t-21 103.5q0 55 24 93.5t64 57.5t86 19q67 0 120 -20l-21 -156q-24 12 -39.5 16.5t-30.5 4.5q-16 0 -23 -7.5t-7 -21.5q0 -12 9 -22.5t20 -19.5t15 -13
q45 -39 69.5 -77t24.5 -99q0 -76 -48 -122t-126 -46q-39 0 -70.5 5zM100 -177v136h166v-136h-166z" />
    <glyph glyph-name="uni1E6C" unicode="&#x1e6c;" horiz-adv-x="392" 
d="M10 700h372v-175h-93v-525h-186v525h-93v175zM114 -177v136h166v-136h-166z" />
    <glyph glyph-name="uni1E6D" unicode="&#x1e6d;" horiz-adv-x="333" 
d="M87.5 35q-41.5 49 -41.5 144v227h-37v77l52 74l89 125h74v-125h97v-151h-97v-218q0 -40 32 -40q16 0 44 11l21 -154q-66 -19 -112 -19q-80 0 -121.5 49zM80 -178v136h166v-136h-166z" />
    <glyph glyph-name="uni1E6E" unicode="&#x1e6e;" horiz-adv-x="392" 
d="M10 700h372v-175h-93v-525h-186v525h-93v175zM337 -153h-280v99h280v-99z" />
    <glyph glyph-name="uni1E6F" unicode="&#x1e6f;" horiz-adv-x="333" 
d="M87.5 35q-41.5 49 -41.5 144v227h-37v77l52 74l89 125h74v-125h97v-151h-97v-218q0 -40 32 -40q16 0 44 11l21 -154q-66 -19 -112 -19q-80 0 -121.5 49zM303 -154h-280v99h280v-99z" />
    <glyph glyph-name="Wgrave" unicode="&#x1e80;" horiz-adv-x="691" 
d="M456 227l45 473h185l-106 -700h-197l-37 324l-38 -324h-197l-106 700h186l45 -473l48 473h124zM414 741l-138 -8l-100 110l167 34z" />
    <glyph glyph-name="wgrave" unicode="&#x1e81;" horiz-adv-x="631" 
d="M408 199l35 358h182l-102 -557h-177l-30 278l-31 -278h-177l-102 557h182l35 -358l36 358h115zM374 609l-107 -8l-98 142l145 20z" />
    <glyph glyph-name="Wacute" unicode="&#x1e82;" horiz-adv-x="691" 
d="M456 227l45 473h185l-106 -700h-197l-37 324l-38 -324h-197l-106 700h186l45 -473l48 473h124zM516 845l-100 -110l-138 7l71 137z" />
    <glyph glyph-name="wacute" unicode="&#x1e83;" horiz-adv-x="631" 
d="M408 199l35 358h182l-102 -557h-177l-30 278l-31 -278h-177l-102 557h182l35 -358l36 358h115zM458 743l-97 -142l-108 8l61 154z" />
    <glyph glyph-name="Wdieresis" unicode="&#x1e84;" horiz-adv-x="691" 
d="M456 227l45 473h185l-106 -700h-197l-37 324l-38 -324h-197l-106 700h186l45 -473l48 473h124zM329 739h-128v131h128v-131zM491 739h-128v131h128v-131z" />
    <glyph glyph-name="wdieresis" unicode="&#x1e85;" horiz-adv-x="631" 
d="M408 199l35 358h182l-102 -557h-177l-30 278l-31 -278h-177l-102 557h182l35 -358l36 358h115zM297 602h-125v136h125v-136zM465 602h-125v136h125v-136z" />
    <glyph glyph-name="uni1E8E" unicode="&#x1e8e;" horiz-adv-x="450" 
d="M258 700h192l-132 -500v-200h-186v197l-132 503h192l35 -293zM316 739h-184v132h184v-132z" />
    <glyph glyph-name="uni1E8F" unicode="&#x1e8f;" horiz-adv-x="455" 
d="M229 187l40 370h182l-117 -557l-36 -171h-178l32 164l-28 -1l-120 565h181l41 -370h3zM319 599h-184v136h184v-136z" />
    <glyph glyph-name="uni1E92" unicode="&#x1e92;" horiz-adv-x="376" 
d="M362 0h-347v127l131 398h-126v175h338v-126l-132 -399h136v-175zM106 -177v136h166v-136h-166z" />
    <glyph glyph-name="uni1E93" unicode="&#x1e93;" horiz-adv-x="377" 
d="M362 0h-346v117l125 284h-120v156h337v-116l-124 -283h128v-158zM110 -177v136h166v-136h-166z" />
    <glyph glyph-name="uni1E97" unicode="&#x1e97;" horiz-adv-x="333" 
d="M87.5 35q-41.5 49 -41.5 144v227h-37v77l52 74l89 125h74v-125h97v-151h-97v-218q0 -40 32 -40q16 0 44 11l21 -154q-66 -19 -112 -19q-80 0 -121.5 49zM149 711h-125v136h125v-136zM317 711h-125v136h125v-136z" />
    <glyph glyph-name="uni1E9E" unicode="&#x1e9e;" horiz-adv-x="559" 
d="M465 394q42 -28 64.5 -75t22.5 -106q0 -107 -53 -167t-154 -60q-41 0 -99 16l25 161q27 -13 50 -13q19 0 30 15.5t11 45.5q0 41 -21.5 58.5t-67.5 26.5l23 248q-22 7 -42 7q-39 0 -39 -77v-474h-185v480q0 112 56 172.5t167 60.5q56 0 113 -17t128 -56z" />
    <glyph glyph-name="uni1EA0" unicode="&#x1ea0;" horiz-adv-x="488" 
d="M486 0h-188l-12 108h-86l-12 -108h-187l117 700h253zM241 484l-28 -254h60l-27 254h-5zM161 -177v136h166v-136h-166z" />
    <glyph glyph-name="uni1EA1" unicode="&#x1ea1;" horiz-adv-x="446" 
d="M366 510q52 -61 52 -165v-345h-177v71q-17 -42 -44 -63t-59 -21q-127 0 -127 179q0 81 39 124.5t118 43.5q29 0 73 -4v14q0 38 -14.5 56.5t-48.5 18.5q-23 0 -53.5 -7t-55.5 -17l-16 149q37 13 71.5 20t81.5 7q108 0 160 -61zM241 237v6q-12 2 -23 2q-17 0 -25.5 -14.5
t-8.5 -42.5q0 -27 6.5 -43t18.5 -16q32 0 32 108zM130 -177v136h166v-136h-166z" />
    <glyph glyph-name="uni1EA2" unicode="&#x1ea2;" horiz-adv-x="488" 
d="M486 0h-188l-12 108h-86l-12 -108h-187l117 700h253zM241 484l-28 -254h60l-27 254h-5zM189 761q29 22 29 45q0 12 -7 19t-18 7q-12 0 -22 -6l-16 78q47 24 89 24q41 0 67 -22.5t26 -63.5q0 -61 -63 -117z" />
    <glyph glyph-name="uni1EA3" unicode="&#x1ea3;" horiz-adv-x="446" 
d="M366 510q52 -61 52 -165v-345h-177v71q-17 -42 -44 -63t-59 -21q-127 0 -127 179q0 81 39 124.5t118 43.5q29 0 73 -4v14q0 38 -14.5 56.5t-48.5 18.5q-23 0 -53.5 -7t-55.5 -17l-16 149q37 13 71.5 20t81.5 7q108 0 160 -61zM241 237v6q-12 2 -23 2q-17 0 -25.5 -14.5
t-8.5 -42.5q0 -27 6.5 -43t18.5 -16q32 0 32 108zM165 619q29 22 29 45q0 12 -7 19t-18 7q-12 0 -22 -6l-16 78q47 24 89 24q41 0 67 -22.5t26 -63.5q0 -61 -63 -117z" />
    <glyph glyph-name="uni1EA4" unicode="&#x1ea4;" horiz-adv-x="488" 
d="M486 0h-188l-12 108h-86l-12 -108h-187l117 700h253zM241 484l-28 -254h60l-27 254h-5zM366 840l61 93l92 -33l-84 -80zM331 892l55 -140l-123 -9l-19 57l-18 -57l-123 9l54 140h174z" />
    <glyph glyph-name="uni1EA5" unicode="&#x1ea5;" horiz-adv-x="446" 
d="M366 510q52 -61 52 -165v-345h-177v71q-17 -42 -44 -63t-59 -21q-127 0 -127 179q0 81 39 124.5t118 43.5q29 0 73 -4v14q0 38 -14.5 56.5t-48.5 18.5q-23 0 -53.5 -7t-55.5 -17l-16 149q37 13 71.5 20t81.5 7q108 0 160 -61zM241 237v6q-12 2 -23 2q-17 0 -25.5 -14.5
t-8.5 -42.5q0 -27 6.5 -43t18.5 -16q32 0 32 108zM342 699l61 93l92 -33l-84 -80zM307 751l55 -140l-123 -9l-19 57l-18 -57l-123 9l54 140h174z" />
    <glyph glyph-name="uni1EA6" unicode="&#x1ea6;" horiz-adv-x="488" 
d="M486 0h-188l-12 108h-86l-12 -108h-187l117 700h253zM241 484l-28 -254h60l-27 254h-5zM-15 909l93 31l59 -94l-69 -19zM331 893l54 -140l-122 -9l-19 57l-18 -57l-123 9l54 140h174z" />
    <glyph glyph-name="uni1EA7" unicode="&#x1ea7;" horiz-adv-x="446" 
d="M366 510q52 -61 52 -165v-345h-177v71q-17 -42 -44 -63t-59 -21q-127 0 -127 179q0 81 39 124.5t118 43.5q29 0 73 -4v14q0 38 -14.5 56.5t-48.5 18.5q-23 0 -53.5 -7t-55.5 -17l-16 149q37 13 71.5 20t81.5 7q108 0 160 -61zM241 237v6q-12 2 -23 2q-17 0 -25.5 -14.5
t-8.5 -42.5q0 -27 6.5 -43t18.5 -16q32 0 32 108zM-39 767l93 31l59 -94l-69 -19zM307 751l54 -140l-122 -9l-19 57l-18 -57l-123 9l54 140h174z" />
    <glyph glyph-name="uni1EA8" unicode="&#x1ea8;" horiz-adv-x="488" 
d="M486 0h-188l-12 108h-86l-12 -108h-187l117 700h253zM241 484l-28 -254h60l-27 254h-5zM344 929q31 17 65 17q30 0 48.5 -16t18.5 -46q0 -45 -45 -86l-62 27q21 15 21 33q0 9 -5 13.5t-13 4.5q-9 0 -16 -4zM331 892l55 -140l-123 -9l-19 57l-18 -57l-123 9l54 140h174z
" />
    <glyph glyph-name="uni1EA9" unicode="&#x1ea9;" horiz-adv-x="446" 
d="M366 510q52 -61 52 -165v-345h-177v71q-17 -42 -44 -63t-59 -21q-127 0 -127 179q0 81 39 124.5t118 43.5q29 0 73 -4v14q0 38 -14.5 56.5t-48.5 18.5q-23 0 -53.5 -7t-55.5 -17l-16 149q37 13 71.5 20t81.5 7q108 0 160 -61zM241 237v6q-12 2 -23 2q-17 0 -25.5 -14.5
t-8.5 -42.5q0 -27 6.5 -43t18.5 -16q32 0 32 108zM320 788q31 17 65 17q30 0 48.5 -16t18.5 -46q0 -45 -45 -86l-62 27q21 15 21 33q0 9 -5 13.5t-13 4.5q-9 0 -16 -4zM307 751l55 -140l-123 -9l-19 57l-18 -57l-123 9l54 140h174z" />
    <glyph glyph-name="uni1EAA" unicode="&#x1eaa;" horiz-adv-x="488" 
d="M486 0h-188l-12 108h-86l-12 -108h-187l117 700h253zM241 484l-28 -254h60l-27 254h-5zM125 924q-2 51 15.5 80t52.5 29q23 0 51 -13q18 -8 24 -8q16 0 16 24l82 -13q2 -53 -15.5 -81.5t-52.5 -28.5q-14 0 -25 3.5t-26 10.5q-3 1 -11 4.5t-14 3.5q-15 0 -14 -25zM331 893
l55 -140l-123 -9l-19 57l-18 -57l-123 9l54 140h174z" />
    <glyph glyph-name="uni1EAB" unicode="&#x1eab;" horiz-adv-x="446" 
d="M366 510q52 -61 52 -165v-345h-177v71q-17 -42 -44 -63t-59 -21q-127 0 -127 179q0 81 39 124.5t118 43.5q29 0 73 -4v14q0 38 -14.5 56.5t-48.5 18.5q-23 0 -53.5 -7t-55.5 -17l-16 149q37 13 71.5 20t81.5 7q108 0 160 -61zM241 237v6q-12 2 -23 2q-17 0 -25.5 -14.5
t-8.5 -42.5q0 -27 6.5 -43t18.5 -16q32 0 32 108zM100 782q-2 51 15.5 80t52.5 29q23 0 51 -13q18 -8 24 -8q16 0 16 24l82 -13q2 -53 -15.5 -81.5t-52.5 -28.5q-14 0 -25 3.5t-26 10.5q-3 1 -11 4.5t-14 3.5q-15 0 -14 -25zM306 751l55 -140l-123 -9l-19 57l-18 -57l-123 9
l54 140h174z" />
    <glyph glyph-name="uni1EAC" unicode="&#x1eac;" horiz-adv-x="488" 
d="M486 0h-188l-12 108h-86l-12 -108h-187l117 700h253zM241 484l-28 -254h60l-27 254h-5zM161 -177v136h166v-136h-166zM333 873l57 -126l-127 -8l-18 51l-19 -51l-127 8l56 126h178z" />
    <glyph glyph-name="uni1EAD" unicode="&#x1ead;" horiz-adv-x="446" 
d="M366 510q52 -61 52 -165v-345h-177v71q-17 -42 -44 -63t-59 -21q-127 0 -127 179q0 81 39 124.5t118 43.5q29 0 73 -4v14q0 38 -14.5 56.5t-48.5 18.5q-23 0 -53.5 -7t-55.5 -17l-16 149q37 13 71.5 20t81.5 7q108 0 160 -61zM241 237v6q-12 2 -23 2q-17 0 -25.5 -14.5
t-8.5 -42.5q0 -27 6.5 -43t18.5 -16q32 0 32 108zM130 -177v136h166v-136h-166zM307 750l55 -140l-123 -9l-19 57l-18 -57l-123 9l54 140h174z" />
    <glyph glyph-name="uni1EAE" unicode="&#x1eae;" horiz-adv-x="488" 
d="M486 0h-188l-12 108h-86l-12 -108h-187l117 700h253zM241 484l-28 -254h60l-27 254h-5zM242 1025l116 -14l-77 -115l-86 6zM387 874q0 -73 -36 -107.5t-107 -34.5t-106.5 34t-35.5 108l116 3q0 -24 6 -35.5t20 -11.5q28 0 28 47z" />
    <glyph glyph-name="uni1EAF" unicode="&#x1eaf;" horiz-adv-x="446" 
d="M366 510q52 -61 52 -165v-345h-177v71q-17 -42 -44 -63t-59 -21q-127 0 -127 179q0 81 39 124.5t118 43.5q29 0 73 -4v14q0 38 -14.5 56.5t-48.5 18.5q-23 0 -53.5 -7t-55.5 -17l-16 149q37 13 71.5 20t81.5 7q108 0 160 -61zM241 237v6q-12 2 -23 2q-17 0 -25.5 -14.5
t-8.5 -42.5q0 -27 6.5 -43t18.5 -16q32 0 32 108zM217 892l116 -14l-77 -115l-86 6zM362 741q0 -73 -36 -107.5t-107 -34.5t-106.5 34t-35.5 108l116 3q0 -24 6 -35.5t20 -11.5q28 0 28 47z" />
    <glyph glyph-name="uni1EB0" unicode="&#x1eb0;" horiz-adv-x="488" 
d="M486 0h-188l-12 108h-86l-12 -108h-187l117 700h253zM241 484l-28 -254h60l-27 254h-5zM293 902l-86 -6l-77 115l116 14zM101 877l116 3q0 -46 27 -46q14 0 20 11.5t6 34.5l116 -3q0 -141 -142 -141q-143 0 -143 141z" />
    <glyph glyph-name="uni1EB1" unicode="&#x1eb1;" horiz-adv-x="446" 
d="M366 510q52 -61 52 -165v-345h-177v71q-17 -42 -44 -63t-59 -21q-127 0 -127 179q0 81 39 124.5t118 43.5q29 0 73 -4v14q0 38 -14.5 56.5t-48.5 18.5q-23 0 -53.5 -7t-55.5 -17l-16 149q37 13 71.5 20t81.5 7q108 0 160 -61zM241 237v6q-12 2 -23 2q-17 0 -25.5 -14.5
t-8.5 -42.5q0 -27 6.5 -43t18.5 -16q32 0 32 108zM183 763l-77 115l116 13l47 -122zM193 747q0 -24 6.5 -35t20.5 -11t20 11.5t6 34.5l116 -3q0 -141 -142 -141q-143 0 -143 141z" />
    <glyph glyph-name="uni1EB2" unicode="&#x1eb2;" horiz-adv-x="488" 
d="M486 0h-188l-12 108h-86l-12 -108h-187l117 700h253zM241 484l-28 -254h60l-27 254h-5zM204 959q-6 6 -15 6q-7 0 -17 -5l-13 63q38 20 73 20q34 0 55 -18.5t21 -52.5q0 -49 -52 -95l-69 29q23 17 23 37q0 10 -6 16zM386 883q0 -73 -36 -107.5t-107 -34.5t-106.5 34
t-35.5 108l116 3q0 -24 6 -35.5t20 -11.5q28 0 28 47z" />
    <glyph glyph-name="uni1EB3" unicode="&#x1eb3;" horiz-adv-x="446" 
d="M366 510q52 -61 52 -165v-345h-177v71q-17 -42 -44 -63t-59 -21q-127 0 -127 179q0 81 39 124.5t118 43.5q29 0 73 -4v14q0 38 -14.5 56.5t-48.5 18.5q-23 0 -53.5 -7t-55.5 -17l-16 149q37 13 71.5 20t81.5 7q108 0 160 -61zM241 237v6q-12 2 -23 2q-17 0 -25.5 -14.5
t-8.5 -42.5q0 -27 6.5 -43t18.5 -16q32 0 32 108zM180 817q-6 6 -15 6q-7 0 -17 -5l-13 63q38 20 73 20q34 0 55 -18.5t21 -52.5q0 -49 -52 -95l-69 29q23 17 23 37q0 10 -6 16zM362 741q0 -73 -36 -107.5t-107 -34.5t-106.5 34t-35.5 108l116 3q0 -24 6 -35.5t20 -11.5
q28 0 28 47z" />
    <glyph glyph-name="uni1EB4" unicode="&#x1eb4;" horiz-adv-x="488" 
d="M486 0h-188l-12 108h-86l-12 -108h-187l117 700h253zM241 484l-28 -254h60l-27 254h-5zM133 914q-2 46 14.5 72t48.5 26q12 0 24.5 -4t21.5 -8q14 -7 22 -7q15 0 15 22l75 -13q2 -47 -14 -72.5t-48 -25.5q-13 0 -25.5 4t-21.5 8q-16 7 -23 7q-14 0 -13 -22zM387 883
q0 -73 -36 -107.5t-107 -34.5t-106.5 34t-35.5 108l116 3q0 -24 6 -35.5t20 -11.5q28 0 28 47z" />
    <glyph glyph-name="uni1EB5" unicode="&#x1eb5;" horiz-adv-x="446" 
d="M366 510q52 -61 52 -165v-345h-177v71q-17 -42 -44 -63t-59 -21q-127 0 -127 179q0 81 39 124.5t118 43.5q29 0 73 -4v14q0 38 -14.5 56.5t-48.5 18.5q-23 0 -53.5 -7t-55.5 -17l-16 149q37 13 71.5 20t81.5 7q108 0 160 -61zM241 237v6q-12 2 -23 2q-17 0 -25.5 -14.5
t-8.5 -42.5q0 -27 6.5 -43t18.5 -16q32 0 32 108zM109 772q-2 46 14.5 72t48.5 26q12 0 24.5 -4t21.5 -8q14 -7 22 -7q15 0 15 22l75 -13q2 -47 -14 -72.5t-48 -25.5q-13 0 -25.5 4t-21.5 8q-16 7 -23 7q-14 0 -13 -22zM363 741q0 -73 -36 -107.5t-107 -34.5t-106.5 34
t-35.5 108l116 3q0 -24 6 -35.5t20 -11.5q28 0 28 47z" />
    <glyph glyph-name="uni1EB6" unicode="&#x1eb6;" horiz-adv-x="488" 
d="M486 0h-188l-12 108h-86l-12 -108h-187l117 700h253zM241 484l-28 -254h60l-27 254h-5zM161 -177v136h166v-136h-166zM386 875q0 -73 -36 -107.5t-107 -34.5t-106.5 34t-35.5 108l116 3q0 -24 6 -35.5t20 -11.5q28 0 28 47z" />
    <glyph glyph-name="uni1EB7" unicode="&#x1eb7;" horiz-adv-x="446" 
d="M366 510q52 -61 52 -165v-345h-177v71q-17 -42 -44 -63t-59 -21q-127 0 -127 179q0 81 39 124.5t118 43.5q29 0 73 -4v14q0 38 -14.5 56.5t-48.5 18.5q-23 0 -53.5 -7t-55.5 -17l-16 149q37 13 71.5 20t81.5 7q108 0 160 -61zM241 237v6q-12 2 -23 2q-17 0 -25.5 -14.5
t-8.5 -42.5q0 -27 6.5 -43t18.5 -16q32 0 32 108zM130 -177v136h166v-136h-166zM363 741q0 -73 -36 -107.5t-107 -34.5t-106.5 34t-35.5 108l116 3q0 -24 6 -35.5t20 -11.5q28 0 28 47z" />
    <glyph glyph-name="uni1EB8" unicode="&#x1eb8;" horiz-adv-x="392" 
d="M221 271v-101h156v-170h-342v700h337v-170h-151v-99h124v-160h-124zM124 -177v136h166v-136h-166z" />
    <glyph glyph-name="uni1EB9" unicode="&#x1eb9;" horiz-adv-x="441" 
d="M194 230q5 -50 19 -71.5t44 -21.5q55 0 106 27l27 -141q-27 -16 -68.5 -26t-83.5 -10q-105 0 -163.5 77.5t-58.5 215.5q0 134 56.5 212t164.5 78q92 0 140 -67t48 -182q0 -39 -14 -91h-217zM258 324q1 51 -6.5 75t-24.5 24t-24.5 -24t-9.5 -75h65zM146 -179v136h166v-136
h-166z" />
    <glyph glyph-name="uni1EBA" unicode="&#x1eba;" horiz-adv-x="392" 
d="M221 271v-101h156v-170h-342v700h337v-170h-151v-99h124v-160h-124zM152 761q29 22 29 45q0 12 -7 19t-18 7q-12 0 -22 -6l-16 78q47 24 89 24q41 0 67 -22.5t26 -63.5q0 -61 -63 -117z" />
    <glyph glyph-name="uni1EBB" unicode="&#x1ebb;" horiz-adv-x="441" 
d="M194 230q5 -50 19 -71.5t44 -21.5q55 0 106 27l27 -141q-27 -16 -68.5 -26t-83.5 -10q-105 0 -163.5 77.5t-58.5 215.5q0 134 56.5 212t164.5 78q92 0 140 -67t48 -182q0 -39 -14 -91h-217zM258 324q1 51 -6.5 75t-24.5 24t-24.5 -24t-9.5 -75h65zM170 618q29 22 29 45
q0 12 -7 19t-18 7q-12 0 -22 -6l-16 78q47 24 89 24q41 0 67 -22.5t26 -63.5q0 -61 -63 -117z" />
    <glyph glyph-name="uni1EBC" unicode="&#x1ebc;" horiz-adv-x="392" 
d="M221 271v-101h156v-170h-342v700h337v-170h-151v-99h124v-160h-124zM86 753q-2 59 15.5 91.5t53.5 32.5q22 0 50 -15q16 -9 24 -9q16 0 16 28l82 -16q2 -60 -15.5 -92t-52.5 -32q-23 0 -51 15q-18 9 -25 9t-11 -7t-3 -21z" />
    <glyph glyph-name="uni1EBD" unicode="&#x1ebd;" horiz-adv-x="441" 
d="M194 230q5 -50 19 -71.5t44 -21.5q55 0 106 27l27 -141q-27 -16 -68.5 -26t-83.5 -10q-105 0 -163.5 77.5t-58.5 215.5q0 134 56.5 212t164.5 78q92 0 140 -67t48 -182q0 -39 -14 -91h-217zM258 324q1 51 -6.5 75t-24.5 24t-24.5 -24t-9.5 -75h65zM105 618
q-2 59 15.5 91.5t53.5 32.5q22 0 50 -15q16 -9 24 -9q16 0 16 28l82 -16q2 -60 -15.5 -92t-52.5 -32q-23 0 -51 15q-18 9 -25 9t-11 -7t-3 -21z" />
    <glyph glyph-name="uni1EBE" unicode="&#x1ebe;" horiz-adv-x="392" 
d="M221 271v-101h156v-170h-342v700h337v-170h-151v-99h124v-160h-124zM329 840l61 93l92 -33l-84 -80zM294 892l55 -140l-123 -9l-19 57l-18 -57l-123 9l54 140h174z" />
    <glyph glyph-name="uni1EBF" unicode="&#x1ebf;" horiz-adv-x="441" 
d="M194 230q5 -50 19 -71.5t44 -21.5q55 0 106 27l27 -141q-27 -16 -68.5 -26t-83.5 -10q-105 0 -163.5 77.5t-58.5 215.5q0 134 56.5 212t164.5 78q92 0 140 -67t48 -182q0 -39 -14 -91h-217zM258 324q1 51 -6.5 75t-24.5 24t-24.5 -24t-9.5 -75h65zM348 697l61 93l92 -33
l-84 -80zM313 749l55 -140l-123 -9l-19 57l-18 -57l-123 9l54 140h174z" />
    <glyph glyph-name="uni1EC0" unicode="&#x1ec0;" horiz-adv-x="392" 
d="M221 271v-101h156v-170h-342v700h337v-170h-151v-99h124v-160h-124zM-53 909l93 31l59 -94l-69 -19zM293 893l54 -140l-122 -9l-19 57l-18 -57l-123 9l54 140h174z" />
    <glyph glyph-name="uni1EC1" unicode="&#x1ec1;" horiz-adv-x="441" 
d="M194 230q5 -50 19 -71.5t44 -21.5q55 0 106 27l27 -141q-27 -16 -68.5 -26t-83.5 -10q-105 0 -163.5 77.5t-58.5 215.5q0 134 56.5 212t164.5 78q92 0 140 -67t48 -182q0 -39 -14 -91h-217zM258 324q1 51 -6.5 75t-24.5 24t-24.5 -24t-9.5 -75h65zM-33 765l93 31l59 -94
l-69 -19zM313 749l54 -140l-122 -9l-19 57l-18 -57l-123 9l54 140h174z" />
    <glyph glyph-name="uni1EC2" unicode="&#x1ec2;" horiz-adv-x="392" 
d="M221 271v-101h156v-170h-342v700h337v-170h-151v-99h124v-160h-124zM307 929q31 17 65 17q30 0 48.5 -16t18.5 -46q0 -45 -45 -86l-62 27q21 15 21 33q0 9 -5 13.5t-13 4.5q-9 0 -16 -4zM294 892l55 -140l-123 -9l-19 57l-18 -57l-123 9l54 140h174z" />
    <glyph glyph-name="uni1EC3" unicode="&#x1ec3;" horiz-adv-x="441" 
d="M194 230q5 -50 19 -71.5t44 -21.5q55 0 106 27l27 -141q-27 -16 -68.5 -26t-83.5 -10q-105 0 -163.5 77.5t-58.5 215.5q0 134 56.5 212t164.5 78q92 0 140 -67t48 -182q0 -39 -14 -91h-217zM258 324q1 51 -6.5 75t-24.5 24t-24.5 -24t-9.5 -75h65zM326 786q31 17 65 17
q30 0 48.5 -16t18.5 -46q0 -45 -45 -86l-62 27q21 15 21 33q0 9 -5 13.5t-13 4.5q-9 0 -16 -4zM313 749l55 -140l-123 -9l-19 57l-18 -57l-123 9l54 140h174z" />
    <glyph glyph-name="uni1EC4" unicode="&#x1ec4;" horiz-adv-x="392" 
d="M221 271v-101h156v-170h-342v700h337v-170h-151v-99h124v-160h-124zM87 924q-2 51 15.5 80t52.5 29q23 0 51 -13q18 -8 24 -8q16 0 16 24l82 -13q2 -53 -15.5 -81.5t-52.5 -28.5q-14 0 -25 3.5t-26 10.5q-3 1 -11 4.5t-14 3.5q-15 0 -14 -25zM293 893l55 -140l-123 -9
l-19 57l-18 -57l-123 9l54 140h174z" />
    <glyph glyph-name="uni1EC5" unicode="&#x1ec5;" horiz-adv-x="441" 
d="M194 230q5 -50 19 -71.5t44 -21.5q55 0 106 27l27 -141q-27 -16 -68.5 -26t-83.5 -10q-105 0 -163.5 77.5t-58.5 215.5q0 134 56.5 212t164.5 78q92 0 140 -67t48 -182q0 -39 -14 -91h-217zM258 324q1 51 -6.5 75t-24.5 24t-24.5 -24t-9.5 -75h65zM106 781q-2 51 15.5 80
t52.5 29q23 0 51 -13q18 -8 24 -8q16 0 16 24l82 -13q2 -53 -15.5 -81.5t-52.5 -28.5q-14 0 -25 3.5t-26 10.5q-3 1 -11 4.5t-14 3.5q-15 0 -14 -25zM312 750l55 -140l-123 -9l-19 57l-18 -57l-123 9l54 140h174z" />
    <glyph glyph-name="uni1EC6" unicode="&#x1ec6;" horiz-adv-x="392" 
d="M221 271v-101h156v-170h-342v700h337v-170h-151v-99h124v-160h-124zM124 -177v136h166v-136h-166zM296 873l57 -126l-127 -8l-18 51l-19 -51l-127 8l56 126h178z" />
    <glyph glyph-name="uni1EC7" unicode="&#x1ec7;" horiz-adv-x="441" 
d="M194 230q5 -50 19 -71.5t44 -21.5q55 0 106 27l27 -141q-27 -16 -68.5 -26t-83.5 -10q-105 0 -163.5 77.5t-58.5 215.5q0 134 56.5 212t164.5 78q92 0 140 -67t48 -182q0 -39 -14 -91h-217zM258 324q1 51 -6.5 75t-24.5 24t-24.5 -24t-9.5 -75h65zM146 -179v136h166v-136
h-166zM313 749l55 -140l-123 -9l-19 57l-18 -57l-123 9l54 140h174z" />
    <glyph glyph-name="uni1EC8" unicode="&#x1ec8;" horiz-adv-x="257" 
d="M222 0h-187v700h187v-700zM73 761q29 22 29 45q0 12 -7 19t-18 7q-12 0 -22 -6l-16 78q47 24 89 24q41 0 67 -22.5t26 -63.5q0 -61 -63 -117z" />
    <glyph glyph-name="uni1EC9" unicode="&#x1ec9;" horiz-adv-x="240" 
d="M209 0h-178v557h178v-557zM65 618q29 22 29 45q0 12 -7 19t-18 7q-12 0 -22 -6l-16 78q47 24 89 24q41 0 67 -22.5t26 -63.5q0 -61 -63 -117z" />
    <glyph glyph-name="uni1ECA" unicode="&#x1eca;" horiz-adv-x="257" 
d="M222 0h-187v700h187v-700zM45 -177v136h166v-136h-166z" />
    <glyph glyph-name="uni1ECB" unicode="&#x1ecb;" horiz-adv-x="240" 
d="M209 0h-178v557h178v-557zM211 602h-184v136h184v-136zM38 -177v136h166v-136h-166z" />
    <glyph glyph-name="uni1ECC" unicode="&#x1ecc;" horiz-adv-x="516" 
d="M84.5 79.5q-62.5 92.5 -62.5 269.5q0 172 60 268t176 96q110 0 173 -92.5t63 -269.5q0 -172 -60.5 -268t-175.5 -96q-111 0 -173.5 92.5zM293 211q11 43 11 138q0 97 -10.5 140t-35.5 43q-24 0 -35 -42.5t-11 -139.5q0 -93 10.5 -137.5t35.5 -44.5q24 0 35 43zM175 -177
v136h166v-136h-166z" />
    <glyph glyph-name="uni1ECD" unicode="&#x1ecd;" horiz-adv-x="464" 
d="M73.5 62q-57.5 76 -57.5 218q0 136 56 213.5t161 77.5q101 0 158 -75t57 -215q0 -138 -55.5 -216.5t-160.5 -78.5q-101 0 -158.5 76zM258 182.5q8 30.5 8 97.5q0 66 -8 96t-26 30q-19 0 -27 -29.5t-8 -95.5q0 -68 8.5 -98.5t27.5 -30.5q17 0 25 30.5zM149 -177v136h166
v-136h-166z" />
    <glyph glyph-name="uni1ECE" unicode="&#x1ece;" horiz-adv-x="516" 
d="M84.5 79.5q-62.5 92.5 -62.5 269.5q0 172 60 268t176 96q110 0 173 -92.5t63 -269.5q0 -172 -60.5 -268t-175.5 -96q-111 0 -173.5 92.5zM293 211q11 43 11 138q0 97 -10.5 140t-35.5 43q-24 0 -35 -42.5t-11 -139.5q0 -93 10.5 -137.5t35.5 -44.5q24 0 35 43zM202 761
q29 22 29 45q0 12 -7 19t-18 7q-12 0 -22 -6l-16 78q47 24 89 24q41 0 67 -22.5t26 -63.5q0 -61 -63 -117z" />
    <glyph glyph-name="uni1ECF" unicode="&#x1ecf;" horiz-adv-x="464" 
d="M73.5 62q-57.5 76 -57.5 218q0 136 56 213.5t161 77.5q101 0 158 -75t57 -215q0 -138 -55.5 -216.5t-160.5 -78.5q-101 0 -158.5 76zM258 182.5q8 30.5 8 97.5q0 66 -8 96t-26 30q-19 0 -27 -29.5t-8 -95.5q0 -68 8.5 -98.5t27.5 -30.5q17 0 25 30.5zM177 618
q29 22 29 45q0 12 -7 19t-18 7q-12 0 -22 -6l-16 78q47 24 89 24q41 0 67 -22.5t26 -63.5q0 -61 -63 -117z" />
    <glyph glyph-name="uni1ED0" unicode="&#x1ed0;" horiz-adv-x="516" 
d="M84.5 79.5q-62.5 92.5 -62.5 269.5q0 172 60 268t176 96q110 0 173 -92.5t63 -269.5q0 -172 -60.5 -268t-175.5 -96q-111 0 -173.5 92.5zM293 211q11 43 11 138q0 97 -10.5 140t-35.5 43q-24 0 -35 -42.5t-11 -139.5q0 -93 10.5 -137.5t35.5 -44.5q24 0 35 43zM380 840
l61 93l92 -33l-84 -80zM345 892l55 -140l-123 -9l-19 57l-18 -57l-123 9l54 140h174z" />
    <glyph glyph-name="uni1ED1" unicode="&#x1ed1;" horiz-adv-x="464" 
d="M73.5 62q-57.5 76 -57.5 218q0 136 56 213.5t161 77.5q101 0 158 -75t57 -215q0 -138 -55.5 -216.5t-160.5 -78.5q-101 0 -158.5 76zM258 182.5q8 30.5 8 97.5q0 66 -8 96t-26 30q-19 0 -27 -29.5t-8 -95.5q0 -68 8.5 -98.5t27.5 -30.5q17 0 25 30.5zM355 697l61 93
l92 -33l-84 -80zM320 749l55 -140l-123 -9l-19 57l-18 -57l-123 9l54 140h174z" />
    <glyph glyph-name="uni1ED2" unicode="&#x1ed2;" horiz-adv-x="516" 
d="M84.5 79.5q-62.5 92.5 -62.5 269.5q0 172 60 268t176 96q110 0 173 -92.5t63 -269.5q0 -172 -60.5 -268t-175.5 -96q-111 0 -173.5 92.5zM293 211q11 43 11 138q0 97 -10.5 140t-35.5 43q-24 0 -35 -42.5t-11 -139.5q0 -93 10.5 -137.5t35.5 -44.5q24 0 35 43zM-2 909
l93 31l59 -94l-69 -19zM344 893l54 -140l-122 -9l-19 57l-18 -57l-123 9l54 140h174z" />
    <glyph glyph-name="uni1ED3" unicode="&#x1ed3;" horiz-adv-x="464" 
d="M73.5 62q-57.5 76 -57.5 218q0 136 56 213.5t161 77.5q101 0 158 -75t57 -215q0 -138 -55.5 -216.5t-160.5 -78.5q-101 0 -158.5 76zM258 182.5q8 30.5 8 97.5q0 66 -8 96t-26 30q-19 0 -27 -29.5t-8 -95.5q0 -68 8.5 -98.5t27.5 -30.5q17 0 25 30.5zM-26 765l93 31
l59 -94l-69 -19zM320 749l54 -140l-122 -9l-19 57l-18 -57l-123 9l54 140h174z" />
    <glyph glyph-name="uni1ED4" unicode="&#x1ed4;" horiz-adv-x="516" 
d="M84.5 79.5q-62.5 92.5 -62.5 269.5q0 172 60 268t176 96q110 0 173 -92.5t63 -269.5q0 -172 -60.5 -268t-175.5 -96q-111 0 -173.5 92.5zM293 211q11 43 11 138q0 97 -10.5 140t-35.5 43q-24 0 -35 -42.5t-11 -139.5q0 -93 10.5 -137.5t35.5 -44.5q24 0 35 43zM358 929
q31 17 65 17q30 0 48.5 -16t18.5 -46q0 -45 -45 -86l-62 27q21 15 21 33q0 9 -5 13.5t-13 4.5q-9 0 -16 -4zM345 892l55 -140l-123 -9l-19 57l-18 -57l-123 9l54 140h174z" />
    <glyph glyph-name="uni1ED5" unicode="&#x1ed5;" horiz-adv-x="464" 
d="M73.5 62q-57.5 76 -57.5 218q0 136 56 213.5t161 77.5q101 0 158 -75t57 -215q0 -138 -55.5 -216.5t-160.5 -78.5q-101 0 -158.5 76zM258 182.5q8 30.5 8 97.5q0 66 -8 96t-26 30q-19 0 -27 -29.5t-8 -95.5q0 -68 8.5 -98.5t27.5 -30.5q17 0 25 30.5zM333 786
q31 17 65 17q30 0 48.5 -16t18.5 -46q0 -45 -45 -86l-62 27q21 15 21 33q0 9 -5 13.5t-13 4.5q-9 0 -16 -4zM320 749l55 -140l-123 -9l-19 57l-18 -57l-123 9l54 140h174z" />
    <glyph glyph-name="uni1ED6" unicode="&#x1ed6;" horiz-adv-x="516" 
d="M84.5 79.5q-62.5 92.5 -62.5 269.5q0 172 60 268t176 96q110 0 173 -92.5t63 -269.5q0 -172 -60.5 -268t-175.5 -96q-111 0 -173.5 92.5zM293 211q11 43 11 138q0 97 -10.5 140t-35.5 43q-24 0 -35 -42.5t-11 -139.5q0 -93 10.5 -137.5t35.5 -44.5q24 0 35 43zM138 924
q-2 51 15.5 80t52.5 29q23 0 51 -13q18 -8 24 -8q16 0 16 24l82 -13q2 -53 -15.5 -81.5t-52.5 -28.5q-14 0 -25 3.5t-26 10.5q-3 1 -11 4.5t-14 3.5q-15 0 -14 -25zM344 893l55 -140l-123 -9l-19 57l-18 -57l-123 9l54 140h174z" />
    <glyph glyph-name="uni1ED7" unicode="&#x1ed7;" horiz-adv-x="464" 
d="M73.5 62q-57.5 76 -57.5 218q0 136 56 213.5t161 77.5q101 0 158 -75t57 -215q0 -138 -55.5 -216.5t-160.5 -78.5q-101 0 -158.5 76zM258 182.5q8 30.5 8 97.5q0 66 -8 96t-26 30q-19 0 -27 -29.5t-8 -95.5q0 -68 8.5 -98.5t27.5 -30.5q17 0 25 30.5zM113 781
q-2 51 15.5 80t52.5 29q23 0 51 -13q18 -8 24 -8q16 0 16 24l82 -13q2 -53 -15.5 -81.5t-52.5 -28.5q-14 0 -25 3.5t-26 10.5q-3 1 -11 4.5t-14 3.5q-15 0 -14 -25zM319 750l55 -140l-123 -9l-19 57l-18 -57l-123 9l54 140h174z" />
    <glyph glyph-name="uni1ED8" unicode="&#x1ed8;" horiz-adv-x="516" 
d="M84.5 79.5q-62.5 92.5 -62.5 269.5q0 172 60 268t176 96q110 0 173 -92.5t63 -269.5q0 -172 -60.5 -268t-175.5 -96q-111 0 -173.5 92.5zM293 211q11 43 11 138q0 97 -10.5 140t-35.5 43q-24 0 -35 -42.5t-11 -139.5q0 -93 10.5 -137.5t35.5 -44.5q24 0 35 43zM175 -177
v136h166v-136h-166zM346 873l57 -126l-127 -8l-18 51l-19 -51l-127 8l56 126h178z" />
    <glyph glyph-name="uni1ED9" unicode="&#x1ed9;" horiz-adv-x="464" 
d="M73.5 62q-57.5 76 -57.5 218q0 136 56 213.5t161 77.5q101 0 158 -75t57 -215q0 -138 -55.5 -216.5t-160.5 -78.5q-101 0 -158.5 76zM258 182.5q8 30.5 8 97.5q0 66 -8 96t-26 30q-19 0 -27 -29.5t-8 -95.5q0 -68 8.5 -98.5t27.5 -30.5q17 0 25 30.5zM149 -177v136h166
v-136h-166zM320 749l55 -140l-123 -9l-19 57l-18 -57l-123 9l54 140h174z" />
    <glyph glyph-name="uni1EDA" unicode="&#x1eda;" horiz-adv-x="516" 
d="M505 787q9 -36 9 -66q0 -46 -19 -76.5t-53 -41.5q52 -92 52 -252q0 -172 -60.5 -268t-175.5 -96q-111 0 -173.5 92.5t-62.5 269.5q0 172 60 268t176 96q49 0 88 -18q10 2 14.5 9.5t4.5 23.5q0 19 -4 44l-34 -37l-138 7l71 137l167 -34l-60 -66zM293 211q11 43 11 138
q0 97 -10.5 140t-35.5 43q-24 0 -35 -42.5t-11 -139.5q0 -93 10.5 -137.5t35.5 -44.5q24 0 35 43z" />
    <glyph glyph-name="uni1EDB" unicode="&#x1edb;" horiz-adv-x="464" 
d="M483 644q9 -36 9 -67q0 -48 -21 -79.5t-57 -39.5q34 -71 34 -177q0 -138 -55.5 -216.5t-160.5 -78.5q-101 0 -158.5 76t-57.5 218q0 136 56 213.5t161 77.5q52 0 91 -19q10 2 14.5 9.5t4.5 23.5q0 14 -5 51zM258 182.5q8 30.5 8 97.5q0 66 -8 96t-26 30q-19 0 -27 -29.5
t-8 -95.5q0 -68 8.5 -98.5t27.5 -30.5q17 0 25 30.5zM373 743l-97 -142l-108 8l61 154z" />
    <glyph glyph-name="uni1EDC" unicode="&#x1edc;" horiz-adv-x="516" 
d="M505 787q9 -36 9 -66q0 -46 -19 -76.5t-53 -41.5q52 -92 52 -252q0 -172 -60.5 -268t-175.5 -96q-111 0 -173.5 92.5t-62.5 269.5q0 172 60 268t176 96q49 0 88 -18q10 2 14.5 9.5t4.5 23.5q0 14 -5 51zM293 211q11 43 11 138q0 97 -10.5 140t-35.5 43q-24 0 -35 -42.5
t-11 -139.5q0 -93 10.5 -137.5t35.5 -44.5q24 0 35 43zM326 741l-138 -8l-100 110l167 34z" />
    <glyph glyph-name="uni1EDD" unicode="&#x1edd;" horiz-adv-x="464" 
d="M483 644q9 -36 9 -67q0 -48 -21 -79.5t-57 -39.5q34 -71 34 -177q0 -138 -55.5 -216.5t-160.5 -78.5q-101 0 -158.5 76t-57.5 218q0 136 56 213.5t161 77.5q52 0 91 -19q10 2 14.5 9.5t4.5 23.5q0 14 -5 51zM258 182.5q8 30.5 8 97.5q0 66 -8 96t-26 30q-19 0 -27 -29.5
t-8 -95.5q0 -68 8.5 -98.5t27.5 -30.5q17 0 25 30.5zM289 609l-107 -8l-98 142l145 20z" />
    <glyph glyph-name="uni1EDE" unicode="&#x1ede;" horiz-adv-x="516" 
d="M505 787q9 -36 9 -66q0 -46 -19 -76.5t-53 -41.5q52 -92 52 -252q0 -172 -60.5 -268t-175.5 -96q-111 0 -173.5 92.5t-62.5 269.5q0 172 60 268t176 96q49 0 88 -18q10 2 14.5 9.5t4.5 23.5q0 14 -5 51zM293 211q11 43 11 138q0 97 -10.5 140t-35.5 43q-24 0 -35 -42.5
t-11 -139.5q0 -93 10.5 -137.5t35.5 -44.5q24 0 35 43zM202 761q29 22 29 45q0 12 -7 19t-18 7q-12 0 -22 -6l-16 78q47 24 89 24q41 0 67 -22.5t26 -63.5q0 -61 -63 -117z" />
    <glyph glyph-name="uni1EDF" unicode="&#x1edf;" horiz-adv-x="464" 
d="M483 644q9 -36 9 -67q0 -48 -21 -79.5t-57 -39.5q34 -71 34 -177q0 -138 -55.5 -216.5t-160.5 -78.5q-101 0 -158.5 76t-57.5 218q0 136 56 213.5t161 77.5q52 0 91 -19q10 2 14.5 9.5t4.5 23.5q0 14 -5 51zM258 182.5q8 30.5 8 97.5q0 66 -8 96t-26 30q-19 0 -27 -29.5
t-8 -95.5q0 -68 8.5 -98.5t27.5 -30.5q17 0 25 30.5zM177 618q29 22 29 45q0 12 -7 19t-18 7q-12 0 -22 -6l-16 78q47 24 89 24q41 0 67 -22.5t26 -63.5q0 -61 -63 -117z" />
    <glyph glyph-name="uni1EE0" unicode="&#x1ee0;" horiz-adv-x="516" 
d="M505 787q9 -36 9 -66q0 -46 -19 -76.5t-53 -41.5q52 -92 52 -252q0 -172 -60.5 -268t-175.5 -96q-111 0 -173.5 92.5t-62.5 269.5q0 172 60 268t176 96q49 0 88 -18q10 2 14.5 9.5t4.5 22.5q0 20 -4 44q-16 -30 -51 -30q-23 0 -51 15q-18 9 -25 9t-11 -7t-3 -21l-83 16
q-2 59 15.5 91.5t53.5 32.5q22 0 50 -15q16 -9 24 -9q16 0 16 27l82 -15q2 -55 -13 -86zM293 211q11 43 11 138q0 97 -10.5 140t-35.5 43q-24 0 -35 -42.5t-11 -139.5q0 -93 10.5 -137.5t35.5 -44.5q24 0 35 43z" />
    <glyph glyph-name="uni1EE1" unicode="&#x1ee1;" horiz-adv-x="464" 
d="M483 644q9 -36 9 -67q0 -48 -21 -79.5t-57 -39.5q34 -71 34 -177q0 -138 -55.5 -216.5t-160.5 -78.5q-101 0 -158.5 76t-57.5 218q0 136 56 213.5t161 77.5q52 0 91 -19q10 2 14.5 9.5t4.5 23.5q0 14 -5 51zM258 182.5q8 30.5 8 97.5q0 66 -8 96t-26 30q-19 0 -27 -29.5
t-8 -95.5q0 -68 8.5 -98.5t27.5 -30.5q17 0 25 30.5zM112 618q-2 59 15.5 91.5t53.5 32.5q22 0 50 -15q16 -9 24 -9q16 0 16 28l82 -16q2 -60 -15.5 -92t-52.5 -32q-23 0 -51 15q-18 9 -25 9t-11 -7t-3 -21z" />
    <glyph glyph-name="uni1EE2" unicode="&#x1ee2;" horiz-adv-x="516" 
d="M505 787q9 -36 9 -66q0 -46 -19 -76.5t-53 -41.5q52 -92 52 -252q0 -172 -60.5 -268t-175.5 -96q-111 0 -173.5 92.5t-62.5 269.5q0 172 60 268t176 96q49 0 88 -18q10 2 14.5 9.5t4.5 23.5q0 14 -5 51zM293 211q11 43 11 138q0 97 -10.5 140t-35.5 43q-24 0 -35 -42.5
t-11 -139.5q0 -93 10.5 -137.5t35.5 -44.5q24 0 35 43zM175 -177v136h166v-136h-166z" />
    <glyph glyph-name="uni1EE3" unicode="&#x1ee3;" horiz-adv-x="464" 
d="M483 644q9 -36 9 -67q0 -48 -21 -79.5t-57 -39.5q34 -71 34 -177q0 -138 -55.5 -216.5t-160.5 -78.5q-101 0 -158.5 76t-57.5 218q0 136 56 213.5t161 77.5q52 0 91 -19q10 2 14.5 9.5t4.5 23.5q0 14 -5 51zM258 182.5q8 30.5 8 97.5q0 66 -8 96t-26 30q-19 0 -27 -29.5
t-8 -95.5q0 -68 8.5 -98.5t27.5 -30.5q17 0 25 30.5zM149 -177v136h166v-136h-166z" />
    <glyph glyph-name="uni1EE4" unicode="&#x1ee4;" horiz-adv-x="491" 
d="M87.5 43q-57.5 57 -57.5 154v503h186v-501q0 -46 30 -46q29 0 29 46v501h186v-503q0 -97 -58 -154t-158 -57t-157.5 57zM164 -177v136h166v-136h-166z" />
    <glyph glyph-name="uni1EE5" unicode="&#x1ee5;" horiz-adv-x="469" 
d="M260 557h177v-557h-177v64q-18 -36 -47 -56.5t-68 -20.5q-57 0 -87 46.5t-30 141.5v382h178v-348q0 -54 23 -54q8 0 16.5 8.5t14.5 24.5v369zM147 -177v136h166v-136h-166z" />
    <glyph glyph-name="uni1EE6" unicode="&#x1ee6;" horiz-adv-x="491" 
d="M87.5 43q-57.5 57 -57.5 154v503h186v-501q0 -46 30 -46q29 0 29 46v501h186v-503q0 -97 -58 -154t-158 -57t-157.5 57zM191 761q29 22 29 45q0 12 -7 19t-18 7q-12 0 -22 -6l-16 78q47 24 89 24q41 0 67 -22.5t26 -63.5q0 -61 -63 -117z" />
    <glyph glyph-name="uni1EE7" unicode="&#x1ee7;" horiz-adv-x="469" 
d="M260 557h177v-557h-177v64q-18 -36 -47 -56.5t-68 -20.5q-57 0 -87 46.5t-30 141.5v382h178v-348q0 -54 23 -54q8 0 16.5 8.5t14.5 24.5v369zM174 618q29 22 29 45q0 12 -7 19t-18 7q-12 0 -22 -6l-16 78q47 24 89 24q41 0 67 -22.5t26 -63.5q0 -61 -63 -117z" />
    <glyph glyph-name="uni1EE8" unicode="&#x1ee8;" horiz-adv-x="491" 
d="M505 793q9 -36 9 -67q0 -39 -14 -67t-39 -42v-420q0 -97 -58 -154t-158 -57t-157.5 57t-57.5 154v503h186v-501q0 -46 30 -46q29 0 29 46v501h62q15 0 21.5 7.5t6.5 26.5q0 13 -5 50l-44 -49l-138 7l71 137l167 -34l-54 -60z" />
    <glyph glyph-name="uni1EE9" unicode="&#x1ee9;" horiz-adv-x="469" 
d="M509 650q10 -34 10 -67q0 -49 -22 -80.5t-60 -39.5v-463h-177v64q-18 -36 -47 -56.5t-68 -20.5q-57 0 -87 46.5t-30 141.5v382h178v-348q0 -54 23 -54q8 0 16.5 8.5t14.5 24.5v369h81q15 0 21.5 7.5t6.5 26.5q0 14 -5 51zM369 743l-97 -142l-108 8l61 154z" />
    <glyph glyph-name="uni1EEA" unicode="&#x1eea;" horiz-adv-x="491" 
d="M505 793q9 -36 9 -67q0 -39 -14 -67t-39 -42v-420q0 -97 -58 -154t-158 -57t-157.5 57t-57.5 154v503h186v-501q0 -46 30 -46q29 0 29 46v501h62q15 0 21.5 7.5t6.5 26.5q0 14 -5 51zM315 741l-138 -8l-100 110l167 34z" />
    <glyph glyph-name="uni1EEB" unicode="&#x1eeb;" horiz-adv-x="469" 
d="M509 650q10 -34 10 -67q0 -49 -22 -80.5t-60 -39.5v-463h-177v64q-18 -36 -47 -56.5t-68 -20.5q-57 0 -87 46.5t-30 141.5v382h178v-348q0 -54 23 -54q8 0 16.5 8.5t14.5 24.5v369h81q15 0 21.5 7.5t6.5 26.5q0 14 -5 51zM285 609l-107 -8l-98 142l145 20z" />
    <glyph glyph-name="uni1EEC" unicode="&#x1eec;" horiz-adv-x="491" 
d="M505 793q9 -36 9 -67q0 -39 -14 -67t-39 -42v-420q0 -97 -58 -154t-158 -57t-157.5 57t-57.5 154v503h186v-501q0 -46 30 -46q29 0 29 46v501h62q15 0 21.5 7.5t6.5 26.5q0 14 -5 51zM191 761q29 22 29 45q0 12 -7 19t-18 7q-12 0 -22 -6l-16 78q47 24 89 24
q41 0 67 -22.5t26 -63.5q0 -61 -63 -117z" />
    <glyph glyph-name="uni1EED" unicode="&#x1eed;" horiz-adv-x="469" 
d="M509 650q10 -34 10 -67q0 -49 -22 -80.5t-60 -39.5v-463h-177v64q-18 -36 -47 -56.5t-68 -20.5q-57 0 -87 46.5t-30 141.5v382h178v-348q0 -54 23 -54q8 0 16.5 8.5t14.5 24.5v369h81q15 0 21.5 7.5t6.5 26.5q0 14 -5 51zM174 618q29 22 29 45q0 12 -7 19t-18 7
q-12 0 -22 -6l-16 78q47 24 89 24q41 0 67 -22.5t26 -63.5q0 -61 -63 -117z" />
    <glyph glyph-name="uni1EEE" unicode="&#x1eee;" horiz-adv-x="491" 
d="M505 793q9 -36 9 -67q0 -39 -14 -67t-39 -42v-420q0 -97 -58 -154t-158 -57t-157.5 57t-57.5 154v503h186v-501q0 -46 30 -46q29 0 29 46v501h62q15 0 21.5 7.5t6.5 26.5q0 14 -5 51zM125 753q-2 59 15.5 91.5t53.5 32.5q22 0 50 -15q16 -9 24 -9q16 0 16 28l82 -16
q2 -60 -15.5 -92t-52.5 -32q-23 0 -51 15q-18 9 -25 9t-11 -7t-3 -21z" />
    <glyph glyph-name="uni1EEF" unicode="&#x1eef;" horiz-adv-x="469" 
d="M509 650q10 -34 10 -67q0 -49 -22 -80.5t-60 -39.5v-463h-177v64q-18 -36 -47 -56.5t-68 -20.5q-57 0 -87 46.5t-30 141.5v382h178v-348q0 -54 23 -54q8 0 16.5 8.5t14.5 24.5v369h81q15 0 21.5 7.5t6.5 26.5q0 14 -5 51zM108 618q-2 59 15.5 91.5t53.5 32.5q22 0 50 -15
q16 -9 24 -9q16 0 16 28l82 -16q2 -60 -15.5 -92t-52.5 -32q-23 0 -51 15q-18 9 -25 9t-11 -7t-3 -21z" />
    <glyph glyph-name="uni1EF0" unicode="&#x1ef0;" horiz-adv-x="491" 
d="M505 793q9 -36 9 -67q0 -39 -14 -67t-39 -42v-420q0 -97 -58 -154t-158 -57t-157.5 57t-57.5 154v503h186v-501q0 -46 30 -46q29 0 29 46v501h62q15 0 21.5 7.5t6.5 26.5q0 14 -5 51zM164 -177v136h166v-136h-166z" />
    <glyph glyph-name="uni1EF1" unicode="&#x1ef1;" horiz-adv-x="469" 
d="M509 650q10 -34 10 -67q0 -49 -22 -80.5t-60 -39.5v-463h-177v64q-18 -36 -47 -56.5t-68 -20.5q-57 0 -87 46.5t-30 141.5v382h178v-348q0 -54 23 -54q8 0 16.5 8.5t14.5 24.5v369h81q15 0 21.5 7.5t6.5 26.5q0 14 -5 51zM147 -177v136h166v-136h-166z" />
    <glyph glyph-name="Ygrave" unicode="&#x1ef2;" horiz-adv-x="450" 
d="M258 700h192l-132 -500v-200h-186v197l-132 503h192l35 -293zM293 741l-138 -8l-100 110l167 34z" />
    <glyph glyph-name="ygrave" unicode="&#x1ef3;" horiz-adv-x="455" 
d="M229 187l40 370h182l-117 -557l-36 -171h-178l32 164l-28 -1l-120 565h181l41 -370h3zM284 606l-107 -8l-98 142l145 20z" />
    <glyph glyph-name="uni1EF4" unicode="&#x1ef4;" horiz-adv-x="450" 
d="M258 700h192l-132 -500v-200h-186v197l-132 503h192l35 -293zM143 -177v136h166v-136h-166z" />
    <glyph glyph-name="uni1EF5" unicode="&#x1ef5;" horiz-adv-x="455" 
d="M229 187l40 370h182l-117 -557l-36 -171h-178l32 164l-28 -1l-120 565h181l41 -370h3zM329 -177v136h166v-136h-166z" />
    <glyph glyph-name="uni1EF6" unicode="&#x1ef6;" horiz-adv-x="450" 
d="M258 700h192l-132 -500v-200h-186v197l-132 503h192l35 -293zM170 761q29 22 29 45q0 12 -7 19t-18 7q-12 0 -22 -6l-16 78q47 24 89 24q41 0 67 -22.5t26 -63.5q0 -61 -63 -117z" />
    <glyph glyph-name="uni1EF7" unicode="&#x1ef7;" horiz-adv-x="455" 
d="M229 187l40 370h182l-117 -557l-36 -171h-178l32 164l-28 -1l-120 565h181l41 -370h3zM173 615q29 22 29 45q0 12 -7 19t-18 7q-12 0 -22 -6l-16 78q47 24 89 24q41 0 67 -22.5t26 -63.5q0 -61 -63 -117z" />
    <glyph glyph-name="uni1EF8" unicode="&#x1ef8;" horiz-adv-x="450" 
d="M258 700h192l-132 -500v-200h-186v197l-132 503h192l35 -293zM104 753q-2 59 15.5 91.5t53.5 32.5q22 0 50 -15q16 -9 24 -9q16 0 16 28l82 -16q2 -60 -15.5 -92t-52.5 -32q-23 0 -51 15q-18 9 -25 9t-11 -7t-3 -21z" />
    <glyph glyph-name="uni1EF9" unicode="&#x1ef9;" horiz-adv-x="455" 
d="M229 187l40 370h182l-117 -557l-36 -171h-178l32 164l-28 -1l-120 565h181l41 -370h3zM107 615q-2 59 15.5 91.5t53.5 32.5q22 0 50 -15q16 -9 24 -9q16 0 16 28l82 -16q2 -60 -15.5 -92t-52.5 -32q-23 0 -51 15q-18 9 -25 9t-11 -7t-3 -21z" />
    <glyph glyph-name="uni2000" unicode="&#x2000;" horiz-adv-x="509" 
 />
    <glyph glyph-name="uni2001" unicode="&#x2001;" horiz-adv-x="1009" 
 />
    <glyph glyph-name="uni2002" unicode="&#x2002;" horiz-adv-x="509" 
 />
    <glyph glyph-name="uni2003" unicode="&#x2003;" horiz-adv-x="1009" 
 />
    <glyph glyph-name="uni2004" unicode="&#x2004;" horiz-adv-x="342" 
 />
    <glyph glyph-name="uni2005" unicode="&#x2005;" horiz-adv-x="259" 
 />
    <glyph glyph-name="uni2006" unicode="&#x2006;" horiz-adv-x="176" 
 />
    <glyph glyph-name="uni2007" unicode="&#x2007;" horiz-adv-x="468" 
 />
    <glyph glyph-name="uni2008" unicode="&#x2008;" horiz-adv-x="289" 
 />
    <glyph glyph-name="uni2009" unicode="&#x2009;" horiz-adv-x="209" 
 />
    <glyph glyph-name="uni200A" unicode="&#x200a;" horiz-adv-x="152" 
 />
    <glyph glyph-name="uni200B" unicode="&#x200b;" horiz-adv-x="9" 
 />
    <glyph glyph-name="uni200C" unicode="&#x200c;" horiz-adv-x="9" 
 />
    <glyph glyph-name="uni200D" unicode="&#x200d;" horiz-adv-x="9" 
 />
    <glyph glyph-name="uni2010" unicode="&#x2010;" horiz-adv-x="275" 
d="M265 309v-153h-255v153h255z" />
    <glyph glyph-name="figuredash" unicode="&#x2012;" horiz-adv-x="275" 
d="M265 309v-153h-255v153h255z" />
    <glyph glyph-name="endash" unicode="&#x2013;" horiz-adv-x="402" 
d="M392 309v-153h-382v153h382z" />
    <glyph glyph-name="emdash" unicode="&#x2014;" horiz-adv-x="530" 
d="M520 309v-153h-510v153h510z" />
    <glyph glyph-name="uni2015" unicode="&#x2015;" horiz-adv-x="530" 
d="M520 309v-153h-510v153h510z" />
    <glyph glyph-name="quoteleft" unicode="&#x2018;" horiz-adv-x="289" 
d="M250 679q-36 -24 -51 -41.5t-16 -47.5h53v-173h-174q-13 65 -13 116q0 65 20 106.5t52.5 66t83.5 46.5z" />
    <glyph glyph-name="quoteright" unicode="&#x2019;" horiz-adv-x="289" 
d="M39 476q36 24 51 41.5t16 47.5h-53v173h174q13 -65 13 -116q0 -65 -20 -106.5t-52.5 -65.5t-83.5 -46z" />
    <glyph glyph-name="quotesinglbase" unicode="&#x201a;" horiz-adv-x="289" 
d="M39 -89q36 24 51 41.5t16 47.5h-53v173h174q13 -65 13 -116q0 -65 -20 -106.5t-52.5 -65.5t-83.5 -46z" />
    <glyph glyph-name="quotedblleft" unicode="&#x201c;" horiz-adv-x="528" 
d="M250 677q-36 -24 -51 -41.5t-16 -47.5h53v-173h-174q-13 65 -13 116q0 64 20 105.5t52.5 66t83.5 46.5zM489 677q-36 -24 -51 -41.5t-16 -47.5h53v-173h-174q-13 65 -13 116q0 64 20 105.5t52.5 66t83.5 46.5z" />
    <glyph glyph-name="quotedblright" unicode="&#x201d;" horiz-adv-x="528" 
d="M39 476q36 24 51 41.5t16 47.5h-53v173h174q13 -65 13 -116q0 -65 -20 -106.5t-52.5 -65.5t-83.5 -46zM278 476q36 24 51 41.5t16 47.5h-53v173h174q13 -65 13 -116q0 -65 -20 -106.5t-52.5 -65.5t-83.5 -46z" />
    <glyph glyph-name="quotedblbase" unicode="&#x201e;" horiz-adv-x="528" 
d="M39 -89q36 24 51 41.5t16 47.5h-53v173h174q13 -65 13 -116q0 -65 -20 -106.5t-52.5 -65.5t-83.5 -46zM278 -89q36 24 51 41.5t16 47.5h-53v173h174q13 -65 13 -116q0 -65 -20 -106.5t-52.5 -65.5t-83.5 -46z" />
    <glyph glyph-name="dagger" unicode="&#x2020;" horiz-adv-x="568" 
d="M351 515l195 21v-177l-197 21l23 -485h-176l23 485l-197 -21v177l195 -21l-21 185h176z" />
    <glyph glyph-name="daggerdbl" unicode="&#x2021;" horiz-adv-x="544" 
d="M340 515l194 21v-177l-195 21l6 -83l-6 -82l195 21v-177l-194 21l21 -185h-177l21 185l-195 -21v177l196 -21l-6 82l6 83l-196 -21v177l195 -21l-21 185h177z" />
    <glyph glyph-name="bullet" unicode="&#x2022;" horiz-adv-x="368" 
d="M118 233.5q-30 17.5 -47.5 48t-17.5 66.5t17.5 65.5t47 47t65.5 17.5t66.5 -17.5t48 -47.5t17.5 -65q0 -36 -17.5 -66.5t-48 -48t-66.5 -17.5q-35 0 -65 17.5z" />
    <glyph glyph-name="twodotenleader" unicode="&#x2025;" horiz-adv-x="578" 
d="M53 0v173h183v-173h-183zM342 0v173h183v-173h-183z" />
    <glyph glyph-name="ellipsis" unicode="&#x2026;" horiz-adv-x="831" 
d="M53 0v173h183v-173h-183zM324 0v173h183v-173h-183zM595 0v173h183v-173h-183z" />
    <glyph glyph-name="uni202F" unicode="&#x202f;" horiz-adv-x="609" 
 />
    <glyph glyph-name="perthousand" unicode="&#x2030;" horiz-adv-x="1049" 
d="M47.5 391q-36.5 48 -36.5 141t36.5 141t107.5 48t107.5 -48t36.5 -141q0 -94 -36.5 -141.5t-108.5 -47.5q-70 0 -106.5 48zM171.5 470.5q5.5 18.5 5.5 60.5q0 43 -5.5 61.5t-17.5 18.5q-11 0 -16.5 -18.5t-5.5 -60.5q0 -43 5.5 -61.5t17.5 -18.5q11 0 16.5 18.5zM310 0
h-121l240 700h120zM475.5 40q-36.5 48 -36.5 141t36.5 141t107.5 48t107.5 -48t36.5 -141q0 -94 -36.5 -141.5t-108.5 -47.5q-70 0 -106.5 48zM599.5 119.5q5.5 18.5 5.5 60.5q0 43 -5.5 61.5t-17.5 18.5q-11 0 -16.5 -18.5t-5.5 -60.5q0 -43 5.5 -61.5t17.5 -18.5
q11 0 16.5 18.5zM786.5 40q-36.5 48 -36.5 141t36.5 141t107.5 48t107.5 -48t36.5 -141q0 -94 -36.5 -141.5t-108.5 -47.5q-70 0 -106.5 48zM910.5 119.5q5.5 18.5 5.5 60.5q0 43 -5.5 61.5t-17.5 18.5q-11 0 -16.5 -18.5t-5.5 -60.5q0 -43 5.5 -61.5t17.5 -18.5
q11 0 16.5 18.5z" />
    <glyph glyph-name="minute" unicode="&#x2032;" horiz-adv-x="219" 
d="M163 738l-17 -212h-106l-18 212h141z" />
    <glyph glyph-name="second" unicode="&#x2033;" horiz-adv-x="360" 
d="M163 738l-17 -212h-106l-18 212h141zM322 738l-17 -212h-106l-18 212h141z" />
    <glyph glyph-name="guilsinglleft" unicode="&#x2039;" horiz-adv-x="298" 
d="M288 84l-107 -55l-171 203v67l171 201l107 -54l-130 -181z" />
    <glyph glyph-name="guilsinglright" unicode="&#x203a;" horiz-adv-x="298" 
d="M288 232l-172 -203l-106 55l129 181l-129 181l106 54l172 -201v-67z" />
    <glyph glyph-name="fraction" unicode="&#x2044;" horiz-adv-x="118" 
d="M0 0h-121l240 700h120z" />
    <glyph glyph-name="uni205F" unicode="&#x205f;" horiz-adv-x="4509" 
 />
    <glyph glyph-name="uni2070" unicode="&#x2070;" horiz-adv-x="310" 
d="M47.5 481q-36.5 48 -36.5 141t36.5 141t107.5 48t107.5 -48t36.5 -141q0 -94 -36.5 -141.5t-108.5 -47.5q-70 0 -106.5 48zM171.5 560.5q5.5 18.5 5.5 60.5q0 43 -5.5 61.5t-17.5 18.5q-11 0 -16.5 -18.5t-5.5 -60.5q0 -43 5.5 -61.5t17.5 -18.5q11 0 16.5 18.5z" />
    <glyph glyph-name="uni2074" unicode="&#x2074;" horiz-adv-x="302" 
d="M267 442h-115v56h-120l-21 72l101 234h155v-212h23v-94h-23v-56zM158 696l-35 -104h35v104z" />
    <glyph glyph-name="uni2075" unicode="&#x2075;" horiz-adv-x="249" 
d="M11 441l17 89q32 -9 55 -9q34 0 34 36q0 17 -10 26.5t-25 9.5q-26 0 -43 -8l-22 37l7 181h196v-88h-80l-1 -49l7 1q42 0 66.5 -30.5t24.5 -82.5q0 -60 -36 -92.5t-99 -32.5q-46 0 -91 12z" />
    <glyph glyph-name="uni2076" unicode="&#x2076;" horiz-adv-x="290" 
d="M48 474q-37 45 -37 129q1 103 37.5 156t107.5 53q20 0 44.5 -5t44.5 -14l-20 -92q-9 5 -22.5 8.5t-24.5 3.5q-27 0 -40.5 -17.5t-12.5 -59.5v-9q7 22 22.5 32t38.5 10q45 0 69 -28t24 -83q0 -61 -35 -95t-97 -34t-99 45zM169 571q0 40 -15 40q-19 0 -19 -40q0 -39 16 -39
q18 0 18 39z" />
    <glyph glyph-name="uni2077" unicode="&#x2077;" horiz-adv-x="229" 
d="M142 441h-118l67 267h-79v94h188l18 -54z" />
    <glyph glyph-name="uni2078" unicode="&#x2078;" horiz-adv-x="309" 
d="M50 464q-39 31 -39 84q0 29 11 52.5t32 37.5q-16 11 -26 29t-10 40q0 48 37.5 76.5t99.5 28.5t99.5 -28.5t37.5 -76.5q0 -25 -9.5 -44t-26.5 -26q19 -13 30.5 -36.5t11.5 -52.5q0 -53 -38.5 -84t-104.5 -31t-105 31zM175 681q0 27 -20 27q-19 0 -19 -27t19 -27
q20 0 20 27zM178 569q0 29 -23 29q-22 0 -22 -29q0 -32 22 -32q23 0 23 32z" />
    <glyph glyph-name="uni2079" unicode="&#x2079;" horiz-adv-x="290" 
d="M89.5 435q-24.5 5 -43.5 14l19 92q9 -5 22.5 -8.5t24.5 -3.5q28 0 41 17.5t12 59.5v9q-14 -43 -60 -43t-70 28t-24 84q0 60 35.5 94.5t96.5 34.5q62 0 99 -45t37 -129q0 -103 -37 -156t-108 -53q-20 0 -44.5 5zM156 670q0 40 -17 40t-17 -40q0 -39 14 -39q20 0 20 39z
" />
    <glyph glyph-name="uni207F" unicode="&#x207f;" horiz-adv-x="267" 
d="M237.5 718q18.5 -27 18.5 -79v-205h-102v183q0 31 -15 31q-8 0 -14 -13t-6 -40v-161h-102v304h102v-38q23 45 69 45q31 0 49.5 -27z" />
    <glyph glyph-name="uni2080" unicode="&#x2080;" horiz-adv-x="310" 
d="M47.5 -57q-36.5 48 -36.5 141t36.5 141t107.5 48t107.5 -48t36.5 -141q0 -94 -36.5 -141.5t-108.5 -47.5q-70 0 -106.5 48zM171.5 22.5q5.5 18.5 5.5 60.5q0 43 -5.5 61.5t-17.5 18.5q-11 0 -16.5 -18.5t-5.5 -60.5q0 -43 5.5 -61.5t17.5 -18.5q11 0 16.5 18.5z" />
    <glyph glyph-name="uni2081" unicode="&#x2081;" horiz-adv-x="197" 
d="M11 248l78 14h97v-359h-119v245l-40 -8z" />
    <glyph glyph-name="uni2082" unicode="&#x2082;" horiz-adv-x="256" 
d="M11 -5q35 22 68 64q14 19 20 34.5t6 31.5q0 15 -10.5 23t-29.5 8q-15 0 -34 -7l-17 109q46 13 83 13q67 0 105 -33t38 -86q0 -59 -55 -119l-14 -16h73v-114h-233v92z" />
    <glyph glyph-name="uni2083" unicode="&#x2083;" horiz-adv-x="241" 
d="M11 -93l16 109q27 -8 49 -8q25 0 25 24q0 22 -25 23l-35 1v60l48 58h-68v92h189l8 -87l-47 -55q6 -3 7 -4q52 -28 52 -98q0 -125 -130 -125q-42 0 -89 10z" />
    <glyph glyph-name="uni2084" unicode="&#x2084;" horiz-adv-x="302" 
d="M267 -96h-115v56h-120l-21 72l101 234h155v-212h23v-94h-23v-56zM158 158l-35 -104h35v104z" />
    <glyph glyph-name="uni2085" unicode="&#x2085;" horiz-adv-x="249" 
d="M11 -96l17 89q32 -9 55 -9q34 0 34 36q0 17 -10 26.5t-25 9.5q-26 0 -43 -8l-22 37l7 181h196v-88h-80l-1 -49l7 1q42 0 66.5 -30.5t24.5 -82.5q0 -60 -36 -92.5t-99 -32.5q-46 0 -91 12z" />
    <glyph glyph-name="uni2086" unicode="&#x2086;" horiz-adv-x="290" 
d="M48 -64q-37 45 -37 129q1 103 37.5 156t107.5 53q20 0 44.5 -5t44.5 -14l-20 -92q-9 5 -22.5 8.5t-24.5 3.5q-27 0 -40.5 -17.5t-12.5 -59.5v-9q7 22 22.5 32t38.5 10q45 0 69 -28t24 -83q0 -61 -35 -95t-97 -34t-99 45zM169 33q0 40 -15 40q-19 0 -19 -40q0 -39 16 -39
q18 0 18 39z" />
    <glyph glyph-name="uni2087" unicode="&#x2087;" horiz-adv-x="229" 
d="M142 -96h-118l67 267h-79v94h188l18 -54z" />
    <glyph glyph-name="uni2088" unicode="&#x2088;" horiz-adv-x="309" 
d="M50 -74q-39 31 -39 84q0 29 11 52.5t32 37.5q-16 11 -26 29t-10 40q0 48 37.5 76.5t99.5 28.5t99.5 -28.5t37.5 -76.5q0 -25 -9.5 -44t-26.5 -26q19 -13 30.5 -36.5t11.5 -52.5q0 -53 -38.5 -84t-104.5 -31t-105 31zM175 143q0 27 -20 27q-19 0 -19 -27t19 -27
q20 0 20 27zM178 31q0 29 -23 29q-22 0 -22 -29q0 -32 22 -32q23 0 23 32z" />
    <glyph glyph-name="uni2089" unicode="&#x2089;" horiz-adv-x="290" 
d="M89.5 -103q-24.5 5 -43.5 14l19 92q9 -5 22.5 -8.5t24.5 -3.5q28 0 41 17.5t12 59.5v9q-14 -43 -60 -43t-70 28t-24 84q0 60 35.5 94.5t96.5 34.5q62 0 99 -45t37 -129q0 -103 -37 -156t-108 -53q-20 0 -44.5 5zM156 132q0 40 -17 40t-17 -40q0 -39 14 -39q20 0 20 39z
" />
    <glyph glyph-name="franc" unicode="&#x20a3;" horiz-adv-x="378" 
d="M366 700v-170h-145v-138h129v-160h-129v-71h34v-75h-34v-86h-186v86h-54v74h54v540h331z" />
    <glyph glyph-name="lira" unicode="&#x20a4;" horiz-adv-x="445" 
d="M253 146h178v-148h-420v113l56 26v81h-52v80h52v48h-52v80h52v23q0 129 57.5 196.5t163.5 67.5q44 0 110 -21l-25 -174q-19 8 -34 11t-33 3q-27 0 -40 -20t-13 -67v-19h102v-80h-102v-48h102v-80h-102v-72z" />
    <glyph glyph-name="uni20A6" unicode="&#x20a6;" horiz-adv-x="508" 
d="M473 394h70v-87h-70v-307h-168l-91 307h-1v-307h-178v307h-68v87h68v306h172l87 -298v298h179v-306z" />
    <glyph glyph-name="peseta" unicode="&#x20a7;" horiz-adv-x="1150" 
d="M406 633q62 -67 62 -193q0 -122 -59.5 -192t-171.5 -70h-19v-178h-186v700h205q107 0 169 -67zM233 341q25 0 39 25.5t14 73.5q0 44 -14 70.5t-39 26.5h-15v-196h15zM801 5q-46 -19 -106 -19q-164 0 -164 192v228h-43v151h51l18 141h152v-141h80v-151h-80v-211
q0 -39 29 -39q17 0 40 11zM891.5 -8q-31.5 5 -71.5 17l22 156q20 -11 44.5 -17.5t42.5 -6.5q26 0 26 27q0 11 -10 22t-36 33q-42 36 -63 73.5t-21 103.5q0 55 24 93.5t64 57.5t86 19q67 0 120 -20l-21 -156q-24 12 -39.5 16.5t-30.5 4.5q-16 0 -23 -7.5t-7 -21.5
q0 -12 9 -22.5t20 -19.5t15 -13q45 -39 69.5 -77t24.5 -99q0 -76 -48 -122t-126 -46q-39 0 -70.5 5z" />
    <glyph glyph-name="dong" unicode="&#x20ab;" horiz-adv-x="482" 
d="M449 683h41v-75h-41v-608h-179v40q-40 -53 -97 -53q-74 0 -115 77.5t-41 216.5q0 137 42 213t116 76q57 0 95 -53v91h-54v74h54v56h179v-55zM260 185.5q10 34.5 10 91.5q0 60 -9.5 95.5t-26.5 35.5t-25.5 -32.5t-8.5 -94.5q0 -130 34 -130q16 0 26 34.5zM469 -153h-413
v99h413v-99z" />
    <glyph glyph-name="Euro" unicode="&#x20ac;" horiz-adv-x="388" 
d="M378 5q-17 -7 -46.5 -13t-54.5 -6q-101 0 -162 70t-76 205h-29v60h24v28v30h-24v60h29q15 133 75.5 203.5t161.5 70.5q35 0 96 -21l-24 -169q-29 14 -53 14q-52 0 -66 -98h97v-60h-102v-29v-29h102v-60h-97q15 -99 65 -99q35 0 59 14z" />
    <glyph glyph-name="uni20B1" unicode="&#x20b1;" horiz-adv-x="620" 
d="M610 515v-47h-79q1 -9 1 -28q0 -15 -2 -43h80v-46h-88q-19 -82 -75 -127.5t-145 -45.5h-20v-178h-185v351h-87v46h87v71h-87v47h87v185h204q89 0 148 -47.5t76 -137.5h85zM297 341q25 0 39 25.5t14 73.5q0 44 -14 70.5t-39 26.5h-15v-196h15z" />
    <glyph glyph-name="uni20B5" unicode="&#x20b5;" horiz-adv-x="399" 
d="M389 8q-22 -9 -54 -15v-69h-116v68q-94 21 -145.5 111.5t-51.5 245.5q0 154 50.5 246t146.5 112v74h116v-75q12 -3 50 -14l-24 -174q-19 8 -34 11t-33 3q-39 0 -58.5 -41.5t-19.5 -140.5q0 -97 19 -140t59 -43q38 0 69 14z" />
    <glyph glyph-name="uni20B9" unicode="&#x20b9;" horiz-adv-x="453" 
d="M443 585h-92q14 -29 21 -64h71v-116h-68q-12 -97 -70 -150l81 -255h-192l-48 201h-131v130h65q49 0 76 17t36 57h-177v116h172q-10 30 -30.5 45.5t-54.5 18.5h-87v115h428v-115z" />
    <glyph glyph-name="uni20BA" unicode="&#x20ba;" horiz-adv-x="583" 
d="M573 376q1 -132 -26 -214t-90 -122t-173 -40h-185v226l-44 -25l-31 51l75 43v61l-58 -34l-31 52l89 51v275h187v-167l49 28l30 -51l-79 -46v-61l62 36l31 -51l-93 -54v-159h23q42 0 64 21.5t29.5 64t7.5 115.5h163z" />
    <glyph glyph-name="uni20BD" unicode="&#x20bd;" horiz-adv-x="486" 
d="M221 178v-38h42v-75h-42v-65h-186v65h-46v75h46v560h205q107 0 169 -67t62 -193q0 -122 -59.5 -192t-171.5 -70h-19zM221 537v-196h15q25 0 39 25.5t14 73.5q0 44 -14 70.5t-39 26.5h-15z" />
    <glyph glyph-name="uni2113" unicode="&#x2113;" horiz-adv-x="479" 
d="M335.5 123q30.5 20 63.5 60l48 -59q-44 -65 -96 -97.5t-115 -32.5q-69 0 -102.5 36t-35.5 119l-20 -12l-32 -19l-24 67q52 32 81 52l3 23l35 231q9 71 38 120.5t70 75t88 25.5q56 0 88 -37t32 -100q0 -92 -56.5 -175t-183.5 -174q-5 -27 -5 -50q0 -73 60 -73
q33 0 63.5 20zM235 335q66 58 99 114t33 117q0 24 -9 37t-25 13q-24 0 -42.5 -30t-27.5 -83z" />
    <glyph glyph-name="uni2116" unicode="&#x2116;" horiz-adv-x="795" 
d="M213 0h-178v700h172l87 -298v298h179v-700h-168l-92 310v-310zM558.5 468q-34.5 42 -34.5 121q0 75 33 118.5t96 43.5q58 0 92 -41.5t34 -119.5q0 -76 -32.5 -120t-93.5 -44q-60 0 -94.5 42zM671 534q7 19 7 55q0 34 -6.5 53.5t-18.5 19.5t-19.5 -18.5t-7.5 -53.5
t6.5 -55t19.5 -20q12 0 19 19zM765 303h-226v85h226v-85z" />
    <glyph glyph-name="uni2117" unicode="&#x2117;" horiz-adv-x="362" 
d="M297 687q43 -56 43 -151t-43 -151t-117 -56q-73 0 -115.5 56t-42.5 151t42.5 151t115.5 56q74 0 117 -56zM267.5 412.5q32.5 45.5 32.5 123.5t-32.5 123.5t-87.5 45.5q-54 0 -86 -45.5t-32 -123.5t32 -123.5t86 -45.5q55 0 87.5 45.5zM243.5 637q21.5 -20 21.5 -58
t-20.5 -57.5t-59.5 -19.5h-8v-63h-67v218h74q38 0 59.5 -20zM183 553q16 0 16 25q0 9 -4.5 15t-11.5 6h-6v-46h6z" />
    <glyph glyph-name="trademark" unicode="&#x2122;" horiz-adv-x="717" 
d="M84 571h-74v129h285v-129h-74v-361h-137v361zM503 540l64 160h119v-490h-126v215l-36 -133h-43l-35 134v-216h-126v490h120z" />
    <glyph glyph-name="uni2126" unicode="&#x2126;" horiz-adv-x="508" 
d="M472 349q-14 -49 -34 -89t-53 -97l93 17v-180h-215v140l8 54q15 101 20.5 151t5.5 100q0 42 -11 65t-32 23q-20 0 -31.5 -22.5t-11.5 -65.5q0 -58 7 -117t27 -188v-140h-215v180l94 -17q-35 60 -54.5 98t-33.5 87t-14 104q0 120 59.5 191t172.5 71q108 0 170 -68.5
t62 -193.5q0 -54 -14 -103z" />
    <glyph glyph-name="estimated" unicode="&#x212e;" horiz-adv-x="828" 
d="M226.5 41.5q-90.5 44.5 -147.5 124.5t-57 183q0 94 51.5 175.5t141.5 130t199 48.5q99 0 189.5 -44t146.5 -124.5t56 -184.5v-8h-645q-6 0 -6 -4v-189q0 -21 35 -53.5t94.5 -56.5t130.5 -24q74 0 140 31t112 85l57 3q-55 -64 -137 -100.5t-173 -36.5q-97 0 -187.5 44.5z
M666 360l6 6v188q0 24 -37.5 55t-97 53.5t-122.5 22.5t-123 -23.5t-98.5 -56t-38.5 -54.5v-185q0 -6 6 -6h505z" />
    <glyph glyph-name="uni2153" unicode="&#x2153;" horiz-adv-x="557" 
d="M11 696l78 14h97v-359h-119v245l-40 -8zM197 0h-121l240 700h120zM326 3l16 109q27 -8 49 -8q25 0 25 24q0 22 -25 23l-35 1v60l48 58h-68v92h189l8 -87l-47 -55q6 -3 7 -4q52 -28 52 -98q0 -125 -130 -125q-42 0 -89 10z" />
    </font>
</defs>
</svg>
