<?xml version="1.0" standalone="no"?>
<!DOCTYPE svg PUBLIC "-//W3C//DTD SVG 1.1//EN" "http://www.w3.org/Graphics/SVG/1.1/DTD/svg11.dtd" >
<svg xmlns="http://www.w3.org/2000/svg" xmlns:xlink="http://www.w3.org/1999/xlink" version="1.1">
<metadata>
Created by FontForge 20170731 at Tue Dec  1 01:26:06 2020
 By Aleksey,,,
Copyright (c) 2020 by Ligature srl. All rights reserved.
</metadata>
<defs>
<font id="EastmanCompressed-Bold" horiz-adv-x="0" >
  <font-face 
    font-family="Eastman Compressed"
    font-weight="700"
    font-stretch="ultra-condensed"
    units-per-em="1000"
    panose-1="0 0 8 8 0 0 0 0 0 0"
    ascent="800"
    descent="-200"
    x-height="549"
    cap-height="700"
    bbox="-621 -237 997 1063"
    underline-thickness="95"
    underline-position="-294"
    unicode-range="U+0020-F8FF"
  />
<missing-glyph horiz-adv-x="627" 
 />
    <glyph glyph-name=".notdef" horiz-adv-x="627" 
 />
    <glyph glyph-name=".null" 
 />
    <glyph glyph-name="nonmarkingreturn" horiz-adv-x="333" 
 />
    <glyph glyph-name="space" unicode=" " horiz-adv-x="241" 
 />
    <glyph glyph-name="exclam" unicode="!" horiz-adv-x="276" 
d="M77 425v276h135v-274l-23 -212h-90zM64 0v135h146v-135h-146z" />
    <glyph glyph-name="quotedbl" unicode="&#x22;" horiz-adv-x="312" 
d="M146 738l-13 -194h-90l-13 194h116zM282 738l-13 -194h-90l-13 194h116z" />
    <glyph glyph-name="numbersign" unicode="#" horiz-adv-x="710" 
d="M680 507v-104h-124l-38 -137h116v-105h-145l-39 -141h-124l39 141h-122l-39 -141h-126l39 141h-87v105h117l38 137h-109v104h138l41 147h125l-41 -147h121l41 147h125l-41 -147h95zM272 266h122l38 137h-122z" />
    <glyph glyph-name="dollar" unicode="$" horiz-adv-x="358" 
d="M308 61.5q-31 -47.5 -86 -64.5v-66h-86v57q-60 4 -117 29l19 129q52 -30 92 -30q31 0 47.5 17.5t16.5 52.5q0 25 -16.5 51t-51.5 68q-49 58 -77 107t-28 107q0 72 30 119.5t85 64.5v73h86v-65q50 -6 103 -26l-19 -129q-47 25 -81 25q-27 0 -42.5 -16.5t-15.5 -47.5
q0 -27 16.5 -53t52.5 -69q49 -57 76 -106t27 -112q0 -68 -31 -115.5z" />
    <glyph glyph-name="percent" unicode="%" horiz-adv-x="631" 
d="M48 417q-31 45 -31 132t31 132.5t92 45.5t92.5 -45t31.5 -133q0 -86 -31 -131.5t-93 -45.5q-61 0 -92 45zM161 479.5q7 21.5 7 69.5q0 46 -6.5 68.5t-21.5 22.5q-14 0 -20.5 -22t-6.5 -69t6 -69t21 -22q14 0 21 21.5zM241 0h-95l245 700h94zM399 38q-31 45 -31 132
t31 132.5t92 45.5t92.5 -45t31.5 -133q0 -86 -31 -131.5t-93 -45.5q-61 0 -92 45zM512 100.5q7 21.5 7 69.5q0 46 -6.5 68.5t-21.5 22.5q-14 0 -20.5 -22t-6.5 -69t6 -69t21 -22q14 0 21 21.5z" />
    <glyph glyph-name="ampersand" unicode="&#x26;" horiz-adv-x="513" 
d="M505 442v-100h-56q1 -12 1 -36q0 -117 -42 -195q32 -16 64 -13v-99q-7 -1 -21 -1q-56 0 -111 33q-55 -40 -128 -40q-84 0 -133 61.5t-49 166.5q0 70 28 128.5t75 94.5q-1 13 -1 39q0 108 39 169t116 61q65 0 103.5 -38.5t38.5 -109.5q0 -57 -29 -121h105zM358 342h-61
v100q13 22 20 48t7 49q0 24 -10 37.5t-29 13.5q-20 0 -32 -23.5t-12 -69.5q0 -81 24.5 -169t66.5 -148q27 63 26 162zM157 131.5q23 -33.5 60 -33.5q24 0 41 7q-70 85 -105 215q-19 -39 -19 -99q0 -56 23 -89.5z" />
    <glyph glyph-name="quotesingle" unicode="'" horiz-adv-x="176" 
d="M146 738l-13 -194h-90l-13 194h116z" />
    <glyph glyph-name="parenleft" unicode="(" horiz-adv-x="355" 
d="M251 -184q-108 87 -164.5 205t-56.5 259q0 140 56.5 258.5t164.5 205.5l94 -73q-86 -79 -130 -178.5t-44 -212.5t44 -212t130 -179z" />
    <glyph glyph-name="parenright" unicode=")" horiz-adv-x="355" 
d="M104 744q108 -87 164.5 -204.5t56.5 -259.5q0 -140 -56.5 -258.5t-164.5 -205.5l-94 73q87 79 131 179t44 212q0 114 -44 213t-131 178z" />
    <glyph glyph-name="asterisk" unicode="*" horiz-adv-x="433" 
d="M315 518l-46 -6l34 -31l62 -77l-76 -54l-52 82l-21 43l-19 -43l-54 -82l-76 54l64 77l33 31l-46 6l-94 26l28 88l91 -36l41 -22l-9 47l-4 97h93l-6 -97l-9 -47l41 22l91 36l29 -88z" />
    <glyph glyph-name="plus" unicode="+" horiz-adv-x="288" 
d="M199 367h79v-104h-79v-82h-110v82h-79v104h79v82h110v-82z" />
    <glyph glyph-name="comma" unicode="," horiz-adv-x="274" 
d="M57 -89q31 21 45.5 40.5t13.5 48.5h-52v135h140q10 -50 10 -93q0 -74 -31.5 -115t-92.5 -69z" />
    <glyph glyph-name="hyphen" unicode="-" horiz-adv-x="263" 
d="M253 282v-110h-243v110h243z" />
    <glyph glyph-name="period" unicode="." horiz-adv-x="274" 
d="M64 0v135h146v-135h-146z" />
    <glyph glyph-name="slash" unicode="/" horiz-adv-x="489" 
d="M127 -99h-130l364 809h131z" />
    <glyph glyph-name="zero" unicode="0" horiz-adv-x="423" 
d="M71 80q-48 92 -48 271q0 177 48 269t141 92q92 0 140 -92t48 -270q0 -177 -48 -269.5t-141 -92.5q-92 0 -140 92zM251.5 170q13.5 60 13.5 179q0 241 -54 241q-53 0 -53 -239q0 -241 54 -241q26 0 39.5 60z" />
    <glyph glyph-name="one" unicode="1" horiz-adv-x="268" 
d="M13 673l98 27h110v-700h-133v568l-54 -16z" />
    <glyph glyph-name="two" unicode="2" horiz-adv-x="375" 
d="M16 96q82 117 128.5 213t46.5 178q0 43 -21 68t-57 25q-30 0 -69 -20l-22 127q72 25 127 25q87 0 135 -56t48 -162q0 -91 -46 -187.5t-121 -186.5h169v-120h-318v96z" />
    <glyph glyph-name="three" unicode="3" horiz-adv-x="375" 
d="M25 11l20 118q44 -17 82 -17q37 0 55 26t18 83q0 58 -21 84.5t-65 26.5q-16 0 -34 -3l1 80l88 172h-132v119h274l7 -91l-101 -189q54 -14 86.5 -66.5t32.5 -132.5q0 -231 -186 -231q-59 0 -125 21z" />
    <glyph glyph-name="four" unicode="4" horiz-adv-x="416" 
d="M355 260h37v-118h-37v-142h-132v142h-191l-24 80l170 478h177v-440zM223 501l-68 -241h68v241z" />
    <glyph glyph-name="five" unicode="5" horiz-adv-x="384" 
d="M30 13l20 120q49 -18 81 -18q74 0 74 107q0 53 -20 81t-53 28q-15 0 -35 -6t-38 -17l-23 55l10 337h277v-121h-147l-5 -145q26 6 40 6q63 0 98 -57.5t35 -161.5q0 -113 -53 -173t-140 -60q-62 0 -121 25z" />
    <glyph glyph-name="six" unicode="6" horiz-adv-x="412" 
d="M23 305q0 216 53 311.5t158 95.5q46 0 100 -18l-18 -120q-35 16 -63 16q-55 0 -75 -61t-20 -166q28 104 93 104q66 0 101.5 -58t35.5 -170q0 -122 -46.5 -186.5t-137.5 -64.5q-181 0 -181 317zM254 236q0 126 -42 126q-47 0 -47 -126q0 -127 43 -127q46 0 46 127z" />
    <glyph glyph-name="seven" unicode="7" horiz-adv-x="347" 
d="M26 700h286l26 -81l-148 -619h-136l139 579h-167v121z" />
    <glyph glyph-name="eight" unicode="8" horiz-adv-x="413" 
d="M70.5 41q-47.5 53 -47.5 155q0 69 21 113t61 59q-72 34 -72 148q0 94 44 145t128 51t129 -50.5t45 -145.5q0 -113 -72 -148q40 -15 61 -58.5t21 -113.5q0 -101 -47 -154.5t-137 -53.5q-87 0 -134.5 53zM237 439.5q11 22.5 11 63.5q0 89 -43 89q-41 0 -41 -89
q0 -41 10.5 -63.5t30.5 -22.5q21 0 32 22.5zM255 207q0 109 -50 109q-48 0 -48 -109q0 -98 48 -98q50 0 50 98z" />
    <glyph glyph-name="nine" unicode="9" horiz-adv-x="412" 
d="M344 632.5q45 -79.5 45 -237.5q0 -216 -53 -311.5t-158 -95.5q-47 0 -100 18l18 120q35 -16 63 -16q55 0 75 61t20 166q-14 -50 -37.5 -77t-55.5 -27q-67 0 -102.5 58t-35.5 170q0 122 47 186.5t137 64.5q92 0 137 -79.5zM158 464q0 -126 42 -126q47 0 47 126
q0 127 -43 127q-46 0 -46 -127z" />
    <glyph glyph-name="colon" unicode=":" horiz-adv-x="275" 
d="M211 550v-135h-147v135h147zM64 0v135h147v-135h-147z" />
    <glyph glyph-name="semicolon" unicode=";" horiz-adv-x="274" 
d="M211 415h-146v135h146v-135zM57 -89q31 21 45.5 40.5t13.5 48.5h-52v135h140q10 -50 10 -93q0 -74 -31.5 -115t-92.5 -69z" />
    <glyph glyph-name="less" unicode="&#x3c;" horiz-adv-x="326" 
d="M30 384l188 236l77 -71l-159 -201l159 -200l-77 -71l-188 236v71z" />
    <glyph glyph-name="equal" unicode="=" horiz-adv-x="263" 
d="M253 498v-97h-243v97h243zM253 326v-97h-243v97h243z" />
    <glyph glyph-name="greater" unicode="&#x3e;" horiz-adv-x="325" 
d="M295 316l-187 -236l-78 71l160 201l-160 200l78 71l187 -236v-71z" />
    <glyph glyph-name="question" unicode="?" horiz-adv-x="345" 
d="M114 215q-2 28 -2 41q0 48 11 86.5t37 72.5q35 48 35 97q0 35 -18 52.5t-48 17.5q-43 0 -90 -28l-19 126q73 30 138 30q81 0 130 -46t49 -134q0 -35 -9 -62.5t-19 -43.5t-39 -57q-28 -41 -40.5 -73t-13.5 -79h-102zM94 0v135h146v-135h-146z" />
    <glyph glyph-name="at" unicode="@" horiz-adv-x="761" 
d="M654 616.5q77 -89.5 77 -260.5q0 -76 -22 -146t-66.5 -115t-108.5 -45q-86 0 -109 77q-23 -39 -55 -60.5t-68 -21.5q-55 0 -82.5 42.5t-27.5 119.5q0 70 20 145t61.5 125.5t100.5 50.5q58 0 82 -62l9 61h116l-49 -322q-3 -16 -3 -31q0 -41 28 -41q26 0 47.5 32t34 85.5
t12.5 113.5q0 133 -57.5 197.5t-174.5 64.5q-79 0 -149 -45t-114.5 -139.5t-44.5 -234.5q0 -119 49.5 -181.5t172.5 -62.5q35 0 79 6l-1 -80q-58 -6 -82 -6q-148 0 -223.5 82.5t-75.5 241.5q0 152 51 265t140 173.5t199 60.5q157 0 234 -89.5zM388 183q19 31 31.5 74
t12.5 72q0 90 -49 90q-37 0 -56 -62t-19 -130q0 -40 9 -57.5t32 -17.5q20 0 39 31z" />
    <glyph glyph-name="A" unicode="A" horiz-adv-x="456" 
d="M449 0h-141l-19 122h-123l-19 -122h-140l132 700h177zM227 507l-43 -272h87l-43 272h-1z" />
    <glyph glyph-name="B" unicode="B" horiz-adv-x="449" 
d="M400 302q30 -43 30 -107q0 -91 -54.5 -143t-157.5 -52h-170v700h159q97 0 151 -47t54 -136q0 -54 -24.5 -95t-68.5 -60q51 -17 81 -60zM183 580v-172h13q80 0 80 85q0 44 -19 65.5t-61 21.5h-13zM207 120q86 0 86 89t-87 89h-23v-178h24z" />
    <glyph glyph-name="C" unicode="C" horiz-adv-x="386" 
d="M93 79.5q-63 91.5 -63 270.5q0 174 60 267.5t173 93.5q44 0 101 -21l-20 -129q-35 16 -70 16q-48 0 -71 -51t-23 -175q0 -119 22.5 -173.5t70.5 -54.5q44 0 75 17l22 -132q-16 -7 -44 -13.5t-59 -6.5q-111 0 -174 91.5z" />
    <glyph glyph-name="D" unicode="D" horiz-adv-x="477" 
d="M48 0v700h164q114 0 174 -89.5t60 -259.5q0 -171 -60 -261t-174 -90h-164zM205 127q49 0 71 54t22 169t-22 169t-71 54h-19v-446h19z" />
    <glyph glyph-name="E" unicode="E" horiz-adv-x="380" 
d="M186 296v-171h169v-125h-307v700h303v-125h-165v-158h140v-121h-140z" />
    <glyph glyph-name="F" unicode="F" horiz-adv-x="363" 
d="M344 700v-125h-158v-192h141v-122h-141v-261h-138v700h296z" />
    <glyph glyph-name="G" unicode="G" horiz-adv-x="439" 
d="M247 382h163v-332q-40 -31 -76.5 -46.5t-90.5 -15.5q-213 0 -213 361q0 182 59 272.5t171 90.5q60 0 117 -23l-21 -133q-18 9 -43 15.5t-41 6.5q-36 0 -56.5 -22.5t-29 -71.5t-8.5 -135q0 -118 16 -174.5t54 -56.5q20 0 35 10v137h-36v117z" />
    <glyph glyph-name="H" unicode="H" horiz-adv-x="488" 
d="M296 412v288h145v-700h-145v286h-105v-286h-143v700h143v-288h105z" />
    <glyph glyph-name="I" unicode="I" horiz-adv-x="234" 
d="M186 0h-138v700h138v-700z" />
    <glyph glyph-name="J" unicode="J" horiz-adv-x="315" 
d="M36.5 -7q-25.5 5 -30.5 6l19 124q24 -3 50 -3q31 0 47 24t16 84v347h-58v125h196v-476q0 -120 -51 -178t-143 -58q-20 0 -45.5 5z" />
    <glyph glyph-name="K" unicode="K" horiz-adv-x="467" 
d="M306 356l153 -356h-150l-123 304v-304h-138v700h138v-292l118 292h148z" />
    <glyph glyph-name="L" unicode="L" horiz-adv-x="348" 
d="M338 0h-290v700h144v-575h146v-125z" />
    <glyph glyph-name="M" unicode="M" horiz-adv-x="555" 
d="M362 700h132l25 -700h-128l-13 348l-77 -347h-47l-77 347l-13 -348h-128l24 700h130l87 -362z" />
    <glyph glyph-name="N" unicode="N" horiz-adv-x="476" 
d="M180 0h-132v700h123l125 -360v360h132v-700h-118l-130 373v-373z" />
    <glyph glyph-name="O" unicode="O" horiz-adv-x="473" 
d="M30 350q0 362 206 362q102 0 154.5 -88t52.5 -274q0 -362 -207 -362q-206 0 -206 362zM270.5 144.5q12.5 21.5 18 70.5t5.5 135t-5 134.5t-17.5 70.5t-35.5 22q-21 0 -33.5 -21.5t-18 -71t-5.5 -134.5t5 -133.5t17.5 -71t34.5 -22.5t34.5 21.5z" />
    <glyph glyph-name="P" unicode="P" horiz-adv-x="434" 
d="M360 636q56 -64 56 -183q0 -116 -53.5 -183t-154.5 -67h-22v-203h-138v700h159q97 0 153 -64zM204 325q33 0 53 33.5t20 94.5q0 57 -19.5 91t-53.5 34h-18v-253h18z" />
    <glyph glyph-name="Q" unicode="Q" horiz-adv-x="475" 
d="M476 1q-32 0 -110 -6q-72 -6 -123 -7h-7h-1v0q-205 2 -205 362q0 362 206 362q102 0 154.5 -88t52.5 -274q0 -163 -40 -250q36 17 73 17v-116zM184 216.5q5 -48.5 17.5 -71t34.5 -22.5t34.5 21.5t18 70.5t5.5 135t-5 134.5t-17.5 70.5t-35.5 22q-21 0 -33.5 -21.5
t-18 -71t-5.5 -134.5t5 -133.5z" />
    <glyph glyph-name="R" unicode="R" horiz-adv-x="439" 
d="M279 0l-73 226h-20v-226h-138v700h159q97 0 153 -61t56 -175q0 -68 -21.5 -120t-62.5 -82l92 -262h-145zM186 578v-230h18q34 0 53.5 30t19.5 86q0 52 -19 83t-54 31h-18z" />
    <glyph glyph-name="S" unicode="S" horiz-adv-x="358" 
d="M19 17l19 129q52 -30 92 -30q31 0 47.5 17.5t16.5 52.5q0 25 -16.5 51t-51.5 68q-49 58 -77 107t-28 107q0 91 47 142t129 51q58 0 128 -27l-19 -129q-47 25 -81 25q-27 0 -42.5 -16.5t-15.5 -47.5q0 -27 16.5 -53t52.5 -69q49 -57 76 -106t27 -112q0 -86 -49.5 -138
t-131.5 -52q-70 0 -139 30z" />
    <glyph glyph-name="T" unicode="T" horiz-adv-x="361" 
d="M10 700h341v-127h-102v-573h-138v573h-101v127z" />
    <glyph glyph-name="U" unicode="U" horiz-adv-x="446" 
d="M87.5 39q-48.5 51 -48.5 141v520h139v-517q0 -34 11.5 -52.5t33.5 -18.5t34 18.5t12 52.5v517h138v-520q0 -90 -48.5 -141t-135.5 -51t-135.5 51z" />
    <glyph glyph-name="V" unicode="V" horiz-adv-x="427" 
d="M297 0h-166l-123 701h145l60 -497h2l63 497h141z" />
    <glyph glyph-name="W" unicode="W" horiz-adv-x="629" 
d="M426 204l57 496h138l-110 -700h-153l-43 363l-45 -363h-151l-111 700h142l55 -496l58 496h104z" />
    <glyph glyph-name="X" unicode="X" horiz-adv-x="436" 
d="M311 356l116 -356h-146l-66 253l-60 -253h-146l110 354l-103 347h145l54 -232l54 232h145z" />
    <glyph glyph-name="Y" unicode="Y" horiz-adv-x="395" 
d="M249 700h143l-126 -504v-196h-138v196l-125 504h143l52 -318z" />
    <glyph glyph-name="Z" unicode="Z" horiz-adv-x="357" 
d="M337 0h-317v90l157 483h-152v127h309v-90l-156 -483h159v-127z" />
    <glyph glyph-name="bracketleft" unicode="[" horiz-adv-x="317" 
d="M307 -180h-277v920h277v-108h-132v-704h132v-108z" />
    <glyph glyph-name="backslash" unicode="\" horiz-adv-x="489" 
d="M127 710l365 -809h-131l-364 809h130z" />
    <glyph glyph-name="bracketright" unicode="]" horiz-adv-x="317" 
d="M10 740h277v-920h-277v108h133v704h-133v108z" />
    <glyph glyph-name="asciicircum" unicode="^" horiz-adv-x="372" 
d="M186 588l-71 -282l-107 7l105 385h146l104 -385l-106 -7z" />
    <glyph glyph-name="underscore" unicode="_" horiz-adv-x="342" 
d="M319 -32v-76h-319v76h319z" />
    <glyph glyph-name="grave" unicode="`" horiz-adv-x="228" 
d="M198 610l-82 -7l-86 131l113 18z" />
    <glyph glyph-name="a" unicode="a" horiz-adv-x="396" 
d="M314.5 509.5q41.5 -51.5 41.5 -152.5v-357h-132v61q-30 -73 -91 -73q-53 0 -84.5 43.5t-31.5 133.5q0 79 35.5 123.5t108.5 44.5q25 0 63 -4v30q0 46 -15 65.5t-47 19.5q-20 0 -46 -7t-45 -17l-15 114q56 27 124 27q93 0 134.5 -51.5zM212 135.5q12 31.5 12 99.5v10
q-22 2 -35 2q-21 0 -33 -17.5t-12 -54.5t10 -54t26 -17q20 0 32 31.5z" />
    <glyph glyph-name="b" unicode="b" horiz-adv-x="434" 
d="M178 42v-42h-133v738h133v-231q36 54 95 54q137 0 137 -284q0 -289 -136 -289q-60 0 -96 54zM261.5 147.5q11.5 37.5 11.5 129.5q0 162 -44 162q-51 0 -51 -164q0 -69 12.5 -117t38.5 -48q21 0 32.5 37.5z" />
    <glyph glyph-name="c" unicode="c" horiz-adv-x="320" 
d="M75 62q-51 74 -51 213q0 138 51 212t149 74q36 0 81 -15l-20 -124q-31 14 -54 14q-36 0 -55 -40.5t-19 -119.5q0 -162 74 -162q27 0 54 13l20 -124q-48 -15 -79 -15q-100 0 -151 74z" />
    <glyph glyph-name="d" unicode="d" horiz-adv-x="434" 
d="M24 277q0 284 137 284q59 0 95 -54v231h133v-738h-133v42q-36 -54 -96 -54q-136 0 -136 289zM242.5 153.5q13.5 43.5 13.5 114.5q0 86 -12 128.5t-38 42.5q-21 0 -33 -37t-12 -125q0 -92 12 -129.5t33 -37.5q23 0 36.5 43.5z" />
    <glyph glyph-name="e" unicode="e" horiz-adv-x="392" 
d="M158 231q5 -64 20.5 -94t46.5 -30q53 0 93 26l21 -112q-24 -15 -59.5 -23.5t-69.5 -8.5q-91 0 -138.5 74t-47.5 213q0 133 46 208.5t136 75.5q77 0 120 -63t43 -170q0 -42 -14 -96h-197zM243 322q2 59 -8.5 90t-32.5 31q-21 0 -31.5 -29.5t-12.5 -91.5h85z" />
    <glyph glyph-name="f" unicode="f" horiz-adv-x="267" 
d="M202 627.5q-9 -14.5 -9 -46.5v-32h68v-116h-68v-433h-133v433h-42v116h42v30q0 88 36 135t105 47q48 0 81 -13l-16 -115q-16 9 -36 9q-19 0 -28 -14.5z" />
    <glyph glyph-name="g" unicode="g" horiz-adv-x="385" 
d="M224 141q75 0 117 -37.5t42 -108.5q0 -80 -52 -128.5t-146 -48.5q-75 0 -116.5 36t-41.5 105q0 53 47 97q-44 23 -44 88q0 26 12.5 50.5t32.5 42.5q-45 50 -45 141q0 84 43.5 133.5t121.5 49.5q46 0 74 -17l82 39l33 -91l-48 -22q25 -41 25 -92q0 -87 -42.5 -137.5
t-122.5 -50.5q-18 0 -36 3q-11 -16 -11 -28q0 -24 35 -24h40zM169 437.5q-9 -20.5 -9 -58.5q0 -40 9 -62.5t26 -22.5q18 0 27 22t9 62q0 37 -9 58.5t-27 21.5q-17 0 -26 -20.5zM233.5 -56.5q13.5 17.5 13.5 44.5q0 54 -51 54h-28q-19 -27 -19 -59q0 -31 12 -44t35 -13
q24 0 37.5 17.5z" />
    <glyph glyph-name="h" unicode="h" horiz-adv-x="426" 
d="M358 519q27 -42 27 -131v-388h-133v381q0 56 -28 56q-20 0 -33 -26t-13 -82v-329h-133v738h133v-237q36 60 98 60q55 0 82 -42z" />
    <glyph glyph-name="i" unicode="i" horiz-adv-x="219" 
d="M176 0h-133v549h133v-549zM172 606h-138v124h138v-124z" />
    <glyph glyph-name="j" unicode="j" horiz-adv-x="222" 
d="M-3 -65q6 1 21 1t21.5 14t6.5 50v549h133v-549q0 -93 -33 -135.5t-103 -42.5q-28 0 -46 6v107zM174 606h-138v124h138v-124z" />
    <glyph glyph-name="k" unicode="k" horiz-adv-x="419" 
d="M296 280l116 -280h-142l-92 239v-239h-133v738h133v-417l89 228h143z" />
    <glyph glyph-name="l" unicode="l" horiz-adv-x="223" 
d="M178 0h-133v738h133v-738z" />
    <glyph glyph-name="m" unicode="m" horiz-adv-x="621" 
d="M553 521.5q27 -39.5 27 -128.5v-393h-133v382q0 55 -27 55q-19 0 -30.5 -24.5t-11.5 -78.5v-334h-133v382q0 31 -7.5 43t-20.5 12q-18 0 -29.5 -24.5t-11.5 -78.5v-334h-133v549h133v-36q35 48 91 48q75 0 98 -69q17 32 43.5 50.5t60.5 18.5q57 0 84 -39.5z" />
    <glyph glyph-name="n" unicode="n" horiz-adv-x="424" 
d="M356 519q27 -42 27 -131v-388h-133v381q0 56 -29 56q-12 0 -24.5 -14.5t-20.5 -39.5v-383h-133v549h133v-55q17 31 42 49t55 18q56 0 83 -42z" />
    <glyph glyph-name="o" unicode="o" horiz-adv-x="414" 
d="M71.5 61.5q-47.5 73.5 -47.5 214.5q0 138 46.5 211.5t137.5 73.5q88 0 135.5 -72.5t47.5 -211.5q0 -140 -47 -214.5t-137 -74.5q-88 0 -135.5 73.5zM256 276q0 161 -49 161t-49 -160q0 -164 50 -164q48 0 48 163z" />
    <glyph glyph-name="p" unicode="p" horiz-adv-x="432" 
d="M43 -171v720h133v-42q35 54 96 54q136 0 136 -288q0 -284 -137 -284q-60 0 -95 53v-213h-133zM271 273q0 91 -11.5 128.5t-32.5 37.5q-24 0 -37.5 -44t-13.5 -122q0 -163 51 -163q44 0 44 163z" />
    <glyph glyph-name="q" unicode="q" horiz-adv-x="432" 
d="M256 42q-35 -53 -95 -53q-137 0 -137 284q0 288 135 288q62 0 97 -53v41h133v-720h-133v213zM246 159q10 49 10 122q0 69 -13.5 113.5t-37.5 44.5q-21 0 -32.5 -37.5t-11.5 -128.5q0 -163 44 -163q31 0 41 49z" />
    <glyph glyph-name="r" unicode="r" horiz-adv-x="279" 
d="M259.5 555.5q8.5 -1.5 12.5 -3.5l-9 -148q-15 7 -36 7q-51 0 -51 -137v-274h-133v549h133v-47q26 55 70 55q5 0 13.5 -1.5z" />
    <glyph glyph-name="s" unicode="s" horiz-adv-x="322" 
d="M17 10l18 121q19 -10 44.5 -16.5t46.5 -6.5q19 0 30 11.5t11 32.5q0 20 -15 39t-48 47q-39 35 -61 71t-22 90q0 78 44 120t113 42q50 0 108 -21l-19 -120q-43 22 -74 22q-19 0 -29.5 -11.5t-10.5 -31.5q0 -23 14 -41t43 -44q45 -40 68 -79.5t23 -89.5q0 -72 -42.5 -114
t-116.5 -42q-57 0 -125 21z" />
    <glyph glyph-name="t" unicode="t" horiz-adv-x="308" 
d="M92 27.5q-33 39.5 -33 121.5v284h-41v65l119 169h55v-118h94v-116h-94v-274q0 -24 7.5 -35.5t25.5 -11.5q20 0 47 10l20 -116q-57 -18 -102 -18q-65 0 -98 39.5z" />
    <glyph glyph-name="u" unicode="u" horiz-adv-x="424" 
d="M248 549h133v-549h-133v55q-17 -31 -42 -49t-55 -18q-56 0 -83 42t-27 131v388h133v-381q0 -56 29 -56q12 0 24.5 14.5t20.5 39.5v383z" />
    <glyph glyph-name="v" unicode="v" horiz-adv-x="409" 
d="M285 0h-160l-117 549h136l59 -378h3l59 378h135z" />
    <glyph glyph-name="w" unicode="w" horiz-adv-x="582" 
d="M389 181l46 368h137l-103 -549h-133l-45 301l-45 -301h-132l-104 549h137l47 -368l52 368h91z" />
    <glyph glyph-name="x" unicode="x" horiz-adv-x="412" 
d="M296 275l109 -275h-141l-57 181l-59 -181h-142l110 283l-99 266h141l47 -165l49 165h140z" />
    <glyph glyph-name="y" unicode="y" horiz-adv-x="409" 
d="M206 165l59 384h135l-119 -549l-36 -171h-135l32 157l-9 -1l-125 564h136l59 -384h3z" />
    <glyph glyph-name="z" unicode="z" horiz-adv-x="344" 
d="M326 0h-305v84l143 347h-138v118h297v-83l-142 -347h145v-119z" />
    <glyph glyph-name="braceleft" unicode="{" horiz-adv-x="360" 
d="M350 632q-60 -4 -82.5 -24.5t-22.5 -64.5q0 -23 4 -71q4 -50 4 -74q0 -110 -120 -118v-1q120 -7 120 -118q0 -22 -4 -72t-4 -72q0 -44 22.5 -65t82.5 -25l-1 -107q-97 0 -151.5 17t-76 48.5t-21.5 81.5q0 25 2 39q12 100 12 147q0 42 -26.5 60.5t-77.5 18.5v96
q51 0 77.5 18t26.5 59q0 34 -3.5 72.5t-8.5 76.5q-2 14 -2 39q0 49 21.5 81t76 48.5t151.5 16.5z" />
    <glyph glyph-name="bar" unicode="|" horiz-adv-x="219" 
d="M171 700v-801h-123v801h123z" />
    <glyph glyph-name="braceright" unicode="}" horiz-adv-x="360" 
d="M10 -72q65 4 86.5 28t18.5 76l-3 36q-1 11 -3 41t-2 54q0 109 119 117v1q-119 8 -119 118q0 22 2 52t3 42l3 36q3 52 -18.5 76t-86.5 28l1 107q97 0 151.5 -16.5t76 -48.5t21.5 -82q0 -25 -2 -39q-12 -102 -12 -149q0 -77 104 -77v-96q-104 0 -104 -75q0 -50 12 -150
q2 -14 2 -39q0 -50 -21.5 -82t-76 -48.5t-151.5 -15.5z" />
    <glyph glyph-name="asciitilde" unicode="~" horiz-adv-x="308" 
d="M10 584q0 44 23 71t62 27q26 0 66 -23q3 -2 15 -8t20 -6q11 0 19 12t8 31l75 -16q-1 -46 -23 -72.5t-60 -26.5q-28 0 -68 23q-10 5 -19 9t-15 4q-12 0 -19.5 -11.5t-8.5 -29.5z" />
    <glyph glyph-name="uni00A0" unicode="&#xa0;" horiz-adv-x="241" 
 />
    <glyph glyph-name="exclamdown" unicode="&#xa1;" horiz-adv-x="276" 
d="M212 549v-135h-146v135h146zM199 124v-275h-135v274l22 212h91z" />
    <glyph glyph-name="cent" unicode="&#xa2;" horiz-adv-x="349" 
d="M305 3q-46 -14 -74 -15l-10 -131h-85l10 146q-60 26 -91 95t-31 177q0 123 41 195.5t120 87.5l10 144h86l-10 -146l34 -10l-20 -124q-31 14 -54 14q-36 0 -55 -40.5t-19 -119.5q0 -162 74 -162q27 0 54 13z" />
    <glyph glyph-name="sterling" unicode="&#xa3;" horiz-adv-x="429" 
d="M216 115h203v-116h-402v91l61 19v163h-66v83h66v102q0 125 53.5 189.5t152.5 64.5q43 0 100 -21l-20 -129q-35 16 -69 16q-43 0 -61 -27t-18 -92v-103h129v-83h-129v-157z" />
    <glyph glyph-name="yen" unicode="&#xa5;" horiz-adv-x="395" 
d="M111 268l-108 432h143l52 -318l51 318h143l-108 -432h60v-65h-78v-34h78v-64h-78v-105h-138v105h-76v64h76v34h-76v65h59z" />
    <glyph glyph-name="brokenbar" unicode="&#xa6;" horiz-adv-x="294" 
d="M209 700v-310h-124v310h124zM209 226v-311h-124v311h124z" />
    <glyph glyph-name="section" unicode="&#xa7;" horiz-adv-x="374" 
d="M296 455q29 -77 44 -136t15 -125q0 -98 -54.5 -151.5t-144.5 -53.5q-51 0 -120 23l19 109q36 -14 66 -18q-6 31 -18 68t-25 73q-29 79 -44 137t-15 125q0 98 54.5 151.5t143.5 53.5q51 0 120 -22l-19 -110q-36 14 -66 18q10 -50 44 -142zM237 188q0 47 -8.5 90.5
t-25.5 109.5q-17 64 -25.5 106t-11.5 90q-30 -24 -30 -72t8 -90.5t26 -110.5q16 -57 25 -101.5t12 -93.5q30 24 30 72z" />
    <glyph glyph-name="dieresis" unicode="&#xa8;" horiz-adv-x="293" 
d="M125 605h-95v124h95v-124zM263 605h-94v124h94v-124z" />
    <glyph glyph-name="copyright" unicode="&#xa9;" horiz-adv-x="646" 
d="M172 31.5q-66 42.5 -104 123t-38 191.5q0 113 38 195t104 125t150 43q85 0 151.5 -43t104.5 -125t38 -195q0 -111 -38 -191.5t-104.5 -123t-151.5 -42.5q-84 0 -150 42.5zM440.5 88q52.5 35 82 101.5t29.5 156.5q0 93 -29.5 160.5t-82 103t-118.5 35.5
q-65 0 -116.5 -35.5t-81 -103t-29.5 -160.5q0 -90 29.5 -156.5t81 -101.5t116.5 -35q66 0 118.5 35zM198 179.5q-48 64.5 -48 172.5q0 107 48 171t132 64q99 0 146 -98l-90 -59q-19 30 -49 30q-29 0 -47 -29.5t-18 -77.5t17 -79t46 -31q33 0 51 29l90 -59q-23 -48 -61 -73
t-89 -25q-80 0 -128 64.5z" />
    <glyph glyph-name="ordfeminine" unicode="&#xaa;" horiz-adv-x="255" 
d="M205.5 717q26.5 -33 26.5 -90v-179h-88v22q-10 -13 -23.5 -20.5t-27.5 -7.5q-34 0 -51.5 26.5t-17.5 76.5q0 41 20 64.5t59 23.5q21 0 41 -4v2q0 21 -6.5 31.5t-23.5 10.5q-13 0 -29.5 -3.5t-28.5 -8.5l-14 74q41 15 82 15q55 0 81.5 -33zM139 535.5q5 13.5 5 36.5v5
l-15 3q-18 0 -18 -31q0 -27 14 -27q9 0 14 13.5zM230 328h-205v74h205v-74z" />
    <glyph glyph-name="guillemotleft" unicode="&#xab;" horiz-adv-x="506" 
d="M266 74l-77 -39l-179 203v48l172 203l84 -40l-143 -187zM496 74l-84 -39l-189 222v9l189 223l84 -40l-143 -187z" />
    <glyph glyph-name="logicalnot" unicode="&#xac;" horiz-adv-x="419" 
d="M10 294v110h399v-233h-109v123h-290z" />
    <glyph glyph-name="uni00AD" unicode="&#xad;" horiz-adv-x="263" 
d="M253 282v-110h-243v110h243z" />
    <glyph glyph-name="registered" unicode="&#xae;" horiz-adv-x="358" 
d="M287 681q40 -53 40 -145t-40 -145t-109 -53q-68 0 -108 53.5t-40 144.5t40 144.5t108 53.5q69 0 109 -53zM264.5 412.5q31.5 45.5 31.5 123.5t-31.5 123.5t-86.5 45.5q-54 0 -85.5 -45.5t-31.5 -123.5t31.5 -123.5t85.5 -45.5q55 0 86.5 45.5zM258 435h-51l-24 72h-6h-11
v-72h-49v221h59q37 0 57.5 -19.5t20.5 -55.5q0 -42 -27 -60zM175 546q14 0 22 9t8 26q0 14 -8 23t-21 9h-10v-67h9z" />
    <glyph glyph-name="macron" unicode="&#xaf;" horiz-adv-x="300" 
d="M270 614h-240v84h240v-84z" />
    <glyph glyph-name="degree" unicode="&#xb0;" horiz-adv-x="373" 
d="M108 421q-36 21 -57 57t-21 78t21 78t57 57t78 21t78 -21t57 -57t21 -78t-21 -78t-57 -57t-78 -21t-78 21zM263.5 478q31.5 32 31.5 78q0 45 -31.5 77t-77.5 32t-78 -32t-32 -77q0 -46 32 -78t78 -32t77.5 32z" />
    <glyph glyph-name="plusminus" unicode="&#xb1;" horiz-adv-x="288" 
d="M199 509v-82h79v-104h-79v-82h-110v82h-79v104h79v82h110zM277 102h-267v101h267v-101z" />
    <glyph glyph-name="uni00B2" unicode="&#xb2;" horiz-adv-x="235" 
d="M17 544q27 20 60 66q14 23 20 40.5t6 38.5q0 16 -11.5 25.5t-28.5 9.5q-14 0 -30 -8l-11 86q36 11 65 11q60 0 92.5 -28t32.5 -79q0 -55 -51 -115l-25 -29h82v-92h-201v74z" />
    <glyph glyph-name="uni00B3" unicode="&#xb3;" horiz-adv-x="223" 
d="M17 475l12 85q18 -8 45 -8q33 0 33 33q0 27 -30 31q-10 1 -32 1v52l48 65h-68v77h164l6 -69l-48 -68l9 -3q50 -25 50 -90q0 -58 -28 -87t-82 -29q-40 0 -79 10z" />
    <glyph glyph-name="acute" unicode="&#xb4;" horiz-adv-x="228" 
d="M198 734l-86 -131l-82 7l55 142z" />
    <glyph glyph-name="uni00B5" unicode="&#xb5;" horiz-adv-x="427" 
d="M252 549h132v-549h-132v56q-32 -58 -82 -67l8 -160h-137l3 505v215h133v-381q0 -56 29 -56q12 0 24.5 14.5t21.5 40.5v382z" />
    <glyph glyph-name="paragraph" unicode="&#xb6;" horiz-adv-x="545" 
d="M316 700v-820h-93v385h-1q-101 0 -152.5 55.5t-51.5 163.5q0 107 51 161.5t151 54.5h96zM403 -120v820h94v-820h-94z" />
    <glyph glyph-name="periodcentered" unicode="&#xb7;" horiz-adv-x="171" 
d="M23 236v116h126v-116h-126z" />
    <glyph glyph-name="cedilla" unicode="&#xb8;" horiz-adv-x="288" 
d="M165 -35q34 -6 53 -24t19 -44q0 -35 -32.5 -55t-90.5 -20q-40 0 -68 6l13 64q20 -6 41 -6q33 0 33 20q0 28 -56 25l21 76h79z" />
    <glyph glyph-name="uni00B9" unicode="&#xb9;" horiz-adv-x="179" 
d="M17 792l69 14h76v-336h-94v244l-40 -8z" />
    <glyph glyph-name="ordmasculine" unicode="&#xba;" horiz-adv-x="270" 
d="M54 482q-30 40 -30 115q0 71 29 112t83 41q51 0 80.5 -39.5t29.5 -112.5q0 -72 -28 -114t-82 -42q-52 0 -82 40zM153 545.5q6 17.5 6 51.5q0 67 -23 67q-24 0 -24 -66q0 -70 24 -70q11 0 17 17.5zM238 328h-206v74h206v-74z" />
    <glyph glyph-name="guillemotright" unicode="&#xbb;" horiz-adv-x="506" 
d="M10 449l84 39l189 -221v-10l-189 -223l-84 40l143 187zM240 449l77 39l179 -203v-48l-172 -203l-84 40l143 187z" />
    <glyph glyph-name="onequarter" unicode="&#xbc;" horiz-adv-x="534" 
d="M17 701l69 14h76v-336h-94v244l-40 -8zM139 0h-95l245 700h94zM494 0h-89v61h-123l-16 58l106 221h122v-208h23v-71h-23v-61zM407 260l-50 -128h50v128z" />
    <glyph glyph-name="onehalf" unicode="&#xbd;" horiz-adv-x="484" 
d="M17 701l69 14h76v-336h-94v244l-40 -8zM139 0h-95l245 700h94zM266 74q27 20 60 66q14 23 20 40.5t6 38.5q0 16 -11.5 25.5t-28.5 9.5q-14 0 -30 -8l-11 86q36 11 65 11q60 0 92.5 -28t32.5 -79q0 -55 -51 -115l-25 -29h82v-92h-201v74z" />
    <glyph glyph-name="threequarters" unicode="&#xbe;" horiz-adv-x="578" 
d="M17 383l12 85q18 -8 45 -8q33 0 33 33q0 27 -30 31q-10 1 -32 1v52l48 65h-68v77h164l6 -69l-48 -68l9 -3q50 -25 50 -90q0 -58 -28 -87t-82 -29q-40 0 -79 10zM183 0h-95l245 700h94zM538 0h-89v61h-123l-16 58l106 221h122v-208h23v-71h-23v-61zM451 260l-50 -128h50
v128z" />
    <glyph glyph-name="questiondown" unicode="&#xbf;" horiz-adv-x="345" 
d="M251 549v-135h-147v135h147zM231 335q2 -28 2 -39q0 -48 -11.5 -87t-37.5 -74q-16 -23 -25.5 -46.5t-9.5 -50.5q0 -36 18.5 -53.5t48.5 -17.5q42 0 90 29l19 -126q-76 -31 -139 -31q-81 0 -130 46t-49 135q0 44 14 75t42 71l12 17q27 40 40 72.5t14 79.5h102z" />
    <glyph glyph-name="Agrave" unicode="&#xc0;" horiz-adv-x="456" 
d="M449 0h-141l-19 122h-123l-19 -122h-140l132 700h177zM227 507l-43 -272h87l-43 272h-1zM282 747l-98 -6l-89 105l120 27z" />
    <glyph glyph-name="Aacute" unicode="&#xc1;" horiz-adv-x="456" 
d="M449 0h-141l-19 122h-123l-19 -122h-140l132 700h177zM227 507l-43 -272h87l-43 272h-1zM362 847l-89 -106l-98 7l67 125z" />
    <glyph glyph-name="Acircumflex" unicode="&#xc2;" horiz-adv-x="456" 
d="M449 0h-141l-19 122h-123l-19 -122h-140l132 700h177zM227 507l-43 -272h87l-43 272h-1zM306 871l48 -122l-104 -7l-21 65l-21 -65l-105 7l49 122h154z" />
    <glyph glyph-name="Atilde" unicode="&#xc3;" horiz-adv-x="456" 
d="M449 0h-141l-19 122h-123l-19 -122h-140l132 700h177zM227 507l-43 -272h87l-43 272h-1zM124 753q-1 8 -1 22q0 90 56 90q23 0 51 -17q14 -9 21 -9q16 0 15 27l65 -10q3 -55 -10.5 -83.5t-42.5 -28.5q-15 0 -26.5 4.5t-24.5 12.5q-14 9 -23 9q-8 0 -11 -7.5t-2 -20.5z
" />
    <glyph glyph-name="Adieresis" unicode="&#xc4;" horiz-adv-x="456" 
d="M449 0h-141l-19 122h-123l-19 -122h-140l132 700h177zM227 507l-43 -272h87l-43 272h-1zM208 741h-109v119h109v-119zM350 741h-109v119h109v-119z" />
    <glyph glyph-name="Aring" unicode="&#xc5;" horiz-adv-x="456" 
d="M449 0h-141l-19 122h-123l-19 -122h-140l132 700h177zM227 507l-43 -272h87l-43 272h-1zM160.5 733q-27.5 27 -27.5 68t27.5 68.5t68.5 27.5t68 -27.5t27 -68.5t-27 -68t-68 -27t-68.5 27zM248 779.5q8 8.5 8 21.5t-8 22.5t-19 9.5q-13 0 -21 -9t-8 -23q0 -13 8 -21.5
t21 -8.5q11 0 19 8.5z" />
    <glyph glyph-name="AE" unicode="&#xc6;" horiz-adv-x="599" 
d="M405 296v-171h169v-125h-307v135h-91l-27 -135h-142l141 700h422v-125h-165v-158h140v-121h-140zM263 572l-66 -327h70v327h-4z" />
    <glyph glyph-name="Ccedilla" unicode="&#xc7;" horiz-adv-x="386" 
d="M282 -35q34 -6 53 -24t19 -44q0 -35 -32.5 -55t-90.5 -20q-39 0 -68 6l13 64q20 -6 41 -6q33 0 33 20q0 28 -56 25l18 64q-86 21 -134 110.5t-48 244.5q0 174 60 267.5t173 93.5q44 0 101 -21l-20 -129q-35 16 -70 16q-48 0 -71 -51t-23 -175q0 -119 22.5 -173.5
t70.5 -54.5q44 0 75 17l22 -132q-12 -6 -34 -11.5t-47 -7.5z" />
    <glyph glyph-name="Egrave" unicode="&#xc8;" horiz-adv-x="380" 
d="M186 296v-171h169v-125h-307v700h303v-125h-165v-158h140v-121h-140zM255 747l-98 -6l-89 105l120 27z" />
    <glyph glyph-name="Eacute" unicode="&#xc9;" horiz-adv-x="380" 
d="M186 296v-171h169v-125h-307v700h303v-125h-165v-158h140v-121h-140zM336 847l-89 -106l-98 7l67 125z" />
    <glyph glyph-name="Ecircumflex" unicode="&#xca;" horiz-adv-x="380" 
d="M186 296v-171h169v-125h-307v700h303v-125h-165v-158h140v-121h-140zM279 871l48 -122l-104 -7l-21 65l-21 -65l-105 7l49 122h154z" />
    <glyph glyph-name="Edieresis" unicode="&#xcb;" horiz-adv-x="380" 
d="M186 296v-171h169v-125h-307v700h303v-125h-165v-158h140v-121h-140zM182 741h-109v119h109v-119zM324 741h-109v119h109v-119z" />
    <glyph glyph-name="Igrave" unicode="&#xcc;" horiz-adv-x="234" 
d="M186 0h-138v700h138v-700zM170 747l-98 -6l-89 105l120 27z" />
    <glyph glyph-name="Iacute" unicode="&#xcd;" horiz-adv-x="234" 
d="M186 0h-138v700h138v-700zM251 847l-89 -106l-98 7l67 125z" />
    <glyph glyph-name="Icircumflex" unicode="&#xce;" horiz-adv-x="234" 
d="M186 0h-138v700h138v-700zM194 871l48 -122l-104 -7l-21 65l-21 -65l-105 7l49 122h154z" />
    <glyph glyph-name="Idieresis" unicode="&#xcf;" horiz-adv-x="234" 
d="M186 0h-138v700h138v-700zM97 741h-109v119h109v-119zM239 741h-109v119h109v-119z" />
    <glyph glyph-name="Eth" unicode="&#xd0;" horiz-adv-x="477" 
d="M212 700q114 0 174 -89.5t60 -259.5q0 -171 -60 -261t-174 -90h-164v316h-30v74h30v310h164zM205 127q49 0 71 54t22 169t-22 169t-71 54h-19v-183h74v-74h-74v-189h19z" />
    <glyph glyph-name="Ntilde" unicode="&#xd1;" horiz-adv-x="476" 
d="M180 0h-132v700h123l125 -360v360h132v-700h-118l-130 373v-373zM134 753q-1 8 -1 22q0 90 56 90q23 0 51 -17q14 -9 21 -9q16 0 15 27l65 -10q3 -55 -10.5 -83.5t-42.5 -28.5q-15 0 -26.5 4.5t-24.5 12.5q-14 9 -23 9q-8 0 -11 -7.5t-2 -20.5z" />
    <glyph glyph-name="Ograve" unicode="&#xd2;" horiz-adv-x="473" 
d="M30 350q0 362 206 362q102 0 154.5 -88t52.5 -274q0 -362 -207 -362q-206 0 -206 362zM270.5 144.5q12.5 21.5 18 70.5t5.5 135t-5 134.5t-17.5 70.5t-35.5 22q-21 0 -33.5 -21.5t-18 -71t-5.5 -134.5t5 -133.5t17.5 -71t34.5 -22.5t34.5 21.5zM290 747l-98 -6l-89 105
l120 27z" />
    <glyph glyph-name="Oacute" unicode="&#xd3;" horiz-adv-x="473" 
d="M30 350q0 362 206 362q102 0 154.5 -88t52.5 -274q0 -362 -207 -362q-206 0 -206 362zM270.5 144.5q12.5 21.5 18 70.5t5.5 135t-5 134.5t-17.5 70.5t-35.5 22q-21 0 -33.5 -21.5t-18 -71t-5.5 -134.5t5 -133.5t17.5 -71t34.5 -22.5t34.5 21.5zM370 847l-89 -106l-98 7
l67 125z" />
    <glyph glyph-name="Ocircumflex" unicode="&#xd4;" horiz-adv-x="473" 
d="M30 350q0 362 206 362q102 0 154.5 -88t52.5 -274q0 -362 -207 -362q-206 0 -206 362zM270.5 144.5q12.5 21.5 18 70.5t5.5 135t-5 134.5t-17.5 70.5t-35.5 22q-21 0 -33.5 -21.5t-18 -71t-5.5 -134.5t5 -133.5t17.5 -71t34.5 -22.5t34.5 21.5zM314 871l48 -122l-104 -7
l-21 65l-21 -65l-105 7l49 122h154z" />
    <glyph glyph-name="Otilde" unicode="&#xd5;" horiz-adv-x="473" 
d="M30 350q0 362 206 362q102 0 154.5 -88t52.5 -274q0 -362 -207 -362q-206 0 -206 362zM270.5 144.5q12.5 21.5 18 70.5t5.5 135t-5 134.5t-17.5 70.5t-35.5 22q-21 0 -33.5 -21.5t-18 -71t-5.5 -134.5t5 -133.5t17.5 -71t34.5 -22.5t34.5 21.5zM133 753q-1 8 -1 22
q0 90 56 90q23 0 51 -17q14 -9 21 -9q16 0 15 27l65 -10q3 -55 -10.5 -83.5t-42.5 -28.5q-15 0 -26.5 4.5t-24.5 12.5q-14 9 -23 9q-8 0 -11 -7.5t-2 -20.5z" />
    <glyph glyph-name="Odieresis" unicode="&#xd6;" horiz-adv-x="473" 
d="M30 350q0 362 206 362q102 0 154.5 -88t52.5 -274q0 -362 -207 -362q-206 0 -206 362zM270.5 144.5q12.5 21.5 18 70.5t5.5 135t-5 134.5t-17.5 70.5t-35.5 22q-21 0 -33.5 -21.5t-18 -71t-5.5 -134.5t5 -133.5t17.5 -71t34.5 -22.5t34.5 21.5zM216 741h-109v119h109
v-119zM358 741h-109v119h109v-119z" />
    <glyph glyph-name="multiply" unicode="&#xd7;" horiz-adv-x="287" 
d="M200 440l77 -77l-58 -58l56 -57l-73 -74l-57 57l-58 -58l-77 77l58 58l-56 56l73 74l57 -56z" />
    <glyph glyph-name="Oslash" unicode="&#xd8;" horiz-adv-x="473" 
d="M400 607q43 -91 43 -257q0 -362 -207 -362q-64 0 -108 35l-17 -37l-73 34l35 75q-43 89 -43 255q0 362 206 362q65 0 109 -34l16 35l73 -33zM179 323l100 214q-13 40 -43 40q-21 0 -33.5 -21.5t-18 -71t-5.5 -134.5v-27zM270.5 144.5q12.5 21.5 18 70.5t5.5 135v29
l-100 -215q7 -22 17 -31.5t25 -9.5q22 0 34.5 21.5z" />
    <glyph glyph-name="Ugrave" unicode="&#xd9;" horiz-adv-x="446" 
d="M87.5 39q-48.5 51 -48.5 141v520h139v-517q0 -34 11.5 -52.5t33.5 -18.5t34 18.5t12 52.5v517h138v-520q0 -90 -48.5 -141t-135.5 -51t-135.5 51zM277 747l-98 -6l-89 105l120 27z" />
    <glyph glyph-name="Uacute" unicode="&#xda;" horiz-adv-x="446" 
d="M87.5 39q-48.5 51 -48.5 141v520h139v-517q0 -34 11.5 -52.5t33.5 -18.5t34 18.5t12 52.5v517h138v-520q0 -90 -48.5 -141t-135.5 -51t-135.5 51zM358 847l-89 -106l-98 7l67 125z" />
    <glyph glyph-name="Ucircumflex" unicode="&#xdb;" horiz-adv-x="446" 
d="M87.5 39q-48.5 51 -48.5 141v520h139v-517q0 -34 11.5 -52.5t33.5 -18.5t34 18.5t12 52.5v517h138v-520q0 -90 -48.5 -141t-135.5 -51t-135.5 51zM301 871l48 -122l-104 -7l-21 65l-21 -65l-105 7l49 122h154z" />
    <glyph glyph-name="Udieresis" unicode="&#xdc;" horiz-adv-x="446" 
d="M87.5 39q-48.5 51 -48.5 141v520h139v-517q0 -34 11.5 -52.5t33.5 -18.5t34 18.5t12 52.5v517h138v-520q0 -90 -48.5 -141t-135.5 -51t-135.5 51zM204 741h-109v119h109v-119zM346 741h-109v119h109v-119z" />
    <glyph glyph-name="Yacute" unicode="&#xdd;" horiz-adv-x="395" 
d="M249 700h143l-126 -504v-196h-138v196l-125 504h143l52 -318zM331 847l-89 -106l-98 7l67 125z" />
    <glyph glyph-name="Thorn" unicode="&#xde;" horiz-adv-x="434" 
d="M207 599q97 0 153 -63t56 -183q0 -116 -53.5 -183t-154.5 -67h-22v-103h-138v700h138v-101h21zM204 225q33 0 53 33.5t20 94.5q0 57 -19.5 91t-53.5 34h-18v-253h18z" />
    <glyph glyph-name="germandbls" unicode="&#xdf;" horiz-adv-x="452" 
d="M404 322q29 -48 29 -119q0 -64 -20 -112.5t-56 -74.5t-81 -26q-36 0 -77 18l14 116q27 -10 39 -10q25 0 35.5 24t10.5 75q0 47 -15 72t-43 26h-4q-11 0 -22 -3v107q31 6 44.5 39.5t13.5 81.5q0 42 -11 66t-32 24q-24 0 -37.5 -26t-13.5 -77v-520l-133 -3v524
q0 104 47.5 165t136.5 61q82 0 129.5 -53.5t47.5 -149.5q0 -55 -21.5 -100.5t-52.5 -65.5q43 -11 72 -59z" />
    <glyph glyph-name="agrave" unicode="&#xe0;" horiz-adv-x="396" 
d="M314.5 509.5q41.5 -51.5 41.5 -152.5v-357h-132v61q-30 -73 -91 -73q-53 0 -84.5 43.5t-31.5 133.5q0 79 35.5 123.5t108.5 44.5q25 0 63 -4v30q0 46 -15 65.5t-47 19.5q-20 0 -46 -7t-45 -17l-15 114q56 27 124 27q93 0 134.5 -51.5zM212 135.5q12 31.5 12 99.5v10
q-22 2 -35 2q-21 0 -33 -17.5t-12 -54.5t10 -54t26 -17q20 0 32 31.5zM234 612l-82 -7l-86 131l113 18z" />
    <glyph glyph-name="aacute" unicode="&#xe1;" horiz-adv-x="396" 
d="M314.5 509.5q41.5 -51.5 41.5 -152.5v-357h-132v61q-30 -73 -91 -73q-53 0 -84.5 43.5t-31.5 133.5q0 79 35.5 123.5t108.5 44.5q25 0 63 -4v30q0 46 -15 65.5t-47 19.5q-20 0 -46 -7t-45 -17l-15 114q56 27 124 27q93 0 134.5 -51.5zM212 135.5q12 31.5 12 99.5v10
q-22 2 -35 2q-21 0 -33 -17.5t-12 -54.5t10 -54t26 -17q20 0 32 31.5zM310 736l-86 -131l-82 7l55 142z" />
    <glyph glyph-name="acircumflex" unicode="&#xe2;" horiz-adv-x="396" 
d="M314.5 509.5q41.5 -51.5 41.5 -152.5v-357h-132v61q-30 -73 -91 -73q-53 0 -84.5 43.5t-31.5 133.5q0 79 35.5 123.5t108.5 44.5q25 0 63 -4v30q0 46 -15 65.5t-47 19.5q-20 0 -46 -7t-45 -17l-15 114q56 27 124 27q93 0 134.5 -51.5zM212 135.5q12 31.5 12 99.5v10
q-22 2 -35 2q-21 0 -33 -17.5t-12 -54.5t10 -54t26 -17q20 0 32 31.5zM265 745l46 -134l-99 -7l-20 71l-19 -71l-100 7l46 134h146z" />
    <glyph glyph-name="atilde" unicode="&#xe3;" horiz-adv-x="396" 
d="M314.5 509.5q41.5 -51.5 41.5 -152.5v-357h-132v61q-30 -73 -91 -73q-53 0 -84.5 43.5t-31.5 133.5q0 79 35.5 123.5t108.5 44.5q25 0 63 -4v30q0 46 -15 65.5t-47 19.5q-20 0 -46 -7t-45 -17l-15 114q56 27 124 27q93 0 134.5 -51.5zM212 135.5q12 31.5 12 99.5v10
q-22 2 -35 2q-21 0 -33 -17.5t-12 -54.5t10 -54t26 -17q20 0 32 31.5zM88 621q-1 8 -1 22q0 90 56 90q23 0 51 -17q14 -9 21 -9q16 0 15 27l65 -10q3 -55 -10.5 -83.5t-42.5 -28.5q-15 0 -26.5 4.5t-24.5 12.5q-14 9 -23 9q-8 0 -11 -7.5t-2 -20.5z" />
    <glyph glyph-name="adieresis" unicode="&#xe4;" horiz-adv-x="396" 
d="M314.5 509.5q41.5 -51.5 41.5 -152.5v-357h-132v61q-30 -73 -91 -73q-53 0 -84.5 43.5t-31.5 133.5q0 79 35.5 123.5t108.5 44.5q25 0 63 -4v30q0 46 -15 65.5t-47 19.5q-20 0 -46 -7t-45 -17l-15 114q56 27 124 27q93 0 134.5 -51.5zM212 135.5q12 31.5 12 99.5v10
q-22 2 -35 2q-21 0 -33 -17.5t-12 -54.5t10 -54t26 -17q20 0 32 31.5zM170 607h-95v124h95v-124zM308 607h-94v124h94v-124z" />
    <glyph glyph-name="aring" unicode="&#xe5;" horiz-adv-x="396" 
d="M314.5 509.5q41.5 -51.5 41.5 -152.5v-357h-132v61q-30 -73 -91 -73q-53 0 -84.5 43.5t-31.5 133.5q0 79 35.5 123.5t108.5 44.5q25 0 63 -4v30q0 46 -15 65.5t-47 19.5q-20 0 -46 -7t-45 -17l-15 114q56 27 124 27q93 0 134.5 -51.5zM212 135.5q12 31.5 12 99.5v10
q-22 2 -35 2q-21 0 -33 -17.5t-12 -54.5t10 -54t26 -17q20 0 32 31.5zM123.5 617q-27.5 27 -27.5 68t27.5 68.5t68.5 27.5t68 -27.5t27 -68.5t-27 -68t-68 -27t-68.5 27zM211 663.5q8 8.5 8 21.5t-8 22.5t-19 9.5q-13 0 -21 -9t-8 -23q0 -13 8 -21.5t21 -8.5q11 0 19 8.5z
" />
    <glyph glyph-name="ae" unicode="&#xe6;" horiz-adv-x="594" 
d="M360 231q5 -64 20.5 -94t46.5 -30q53 0 93 26l21 -112q-24 -15 -59.5 -23.5t-69.5 -8.5q-91 0 -138 74q-45 -75 -128 -75q-61 0 -95 47t-34 127t35.5 125.5t104.5 45.5q35 0 65 -6v13q0 53 -15 78.5t-47 25.5q-21 0 -44.5 -6.5t-42.5 -18.5l-24 115q59 27 129 27
q77 0 114 -50q44 49 116 49q77 0 120 -63t43 -170q0 -42 -14 -96h-197zM445 322q2 59 -8.5 90t-32.5 31q-21 0 -31.5 -29.5t-12.5 -91.5h85zM212 135q15 28 16 89q-1 5 -1 15q-14 5 -39 5q-20 0 -31 -16t-11 -53q0 -31 8.5 -49.5t23.5 -18.5q19 0 34 28z" />
    <glyph glyph-name="ccedilla" unicode="&#xe7;" horiz-adv-x="320" 
d="M305 3q-44 -13 -66 -14l-7 -24q34 -6 53 -24t19 -44q0 -35 -32.5 -55t-90.5 -20q-40 0 -68 6l13 64q20 -6 41 -6q33 0 33 20q0 28 -56 25l18 66q-69 22 -103.5 92.5t-34.5 185.5q0 138 51 212t149 74q36 0 81 -15l-20 -124q-31 14 -54 14q-36 0 -55 -40.5t-19 -119.5
q0 -162 74 -162q27 0 54 13z" />
    <glyph glyph-name="egrave" unicode="&#xe8;" horiz-adv-x="392" 
d="M158 231q5 -64 20.5 -94t46.5 -30q53 0 93 26l21 -112q-24 -15 -59.5 -23.5t-69.5 -8.5q-91 0 -138.5 74t-47.5 213q0 133 46 208.5t136 75.5q77 0 120 -63t43 -170q0 -42 -14 -96h-197zM243 322q2 59 -8.5 90t-32.5 31q-21 0 -31.5 -29.5t-12.5 -91.5h85zM247 611
l-82 -7l-86 131l113 18z" />
    <glyph glyph-name="eacute" unicode="&#xe9;" horiz-adv-x="392" 
d="M158 231q5 -64 20.5 -94t46.5 -30q53 0 93 26l21 -112q-24 -15 -59.5 -23.5t-69.5 -8.5q-91 0 -138.5 74t-47.5 213q0 133 46 208.5t136 75.5q77 0 120 -63t43 -170q0 -42 -14 -96h-197zM243 322q2 59 -8.5 90t-32.5 31q-21 0 -31.5 -29.5t-12.5 -91.5h85zM323 734
l-86 -131l-82 7l55 142z" />
    <glyph glyph-name="ecircumflex" unicode="&#xea;" horiz-adv-x="392" 
d="M158 231q5 -64 20.5 -94t46.5 -30q53 0 93 26l21 -112q-24 -15 -59.5 -23.5t-69.5 -8.5q-91 0 -138.5 74t-47.5 213q0 133 46 208.5t136 75.5q77 0 120 -63t43 -170q0 -42 -14 -96h-197zM243 322q2 59 -8.5 90t-32.5 31q-21 0 -31.5 -29.5t-12.5 -91.5h85zM277 743
l46 -134l-99 -7l-20 71l-19 -71l-100 7l46 134h146z" />
    <glyph glyph-name="edieresis" unicode="&#xeb;" horiz-adv-x="392" 
d="M158 231q5 -64 20.5 -94t46.5 -30q53 0 93 26l21 -112q-24 -15 -59.5 -23.5t-69.5 -8.5q-91 0 -138.5 74t-47.5 213q0 133 46 208.5t136 75.5q77 0 120 -63t43 -170q0 -42 -14 -96h-197zM243 322q2 59 -8.5 90t-32.5 31q-21 0 -31.5 -29.5t-12.5 -91.5h85zM183 605h-95
v124h95v-124zM321 605h-94v124h94v-124z" />
    <glyph glyph-name="igrave" unicode="&#xec;" horiz-adv-x="219" 
d="M176 0h-133v549h133v-549zM152 611l-82 -7l-86 131l113 18z" />
    <glyph glyph-name="iacute" unicode="&#xed;" horiz-adv-x="219" 
d="M176 0h-133v549h133v-549zM228 734l-86 -131l-82 7l55 142z" />
    <glyph glyph-name="icircumflex" unicode="&#xee;" horiz-adv-x="219" 
d="M176 0h-133v549h133v-549zM182 743l46 -134l-99 -7l-20 71l-19 -71l-100 7l46 134h146z" />
    <glyph glyph-name="idieresis" unicode="&#xef;" horiz-adv-x="219" 
d="M176 0h-133v549h133v-549zM88 605h-95v124h95v-124zM226 605h-94v124h94v-124z" />
    <glyph glyph-name="eth" unicode="&#xf0;" horiz-adv-x="407" 
d="M315 633q30 -56 46 -132.5t16 -168.5q0 -171 -44.5 -257.5t-138.5 -86.5q-83 0 -126.5 63t-43.5 184q0 108 40 175t110 67q35 0 62 -33q-8 81 -31 133l-51 -27l-26 54l44 23q-25 25 -60 28l52 89q65 -1 117 -61l39 20l26 -54zM238 232q-10 126 -43 126q-16 0 -26.5 -32.5
t-10.5 -97.5q0 -63 10 -95t28 -32q35 0 42 131z" />
    <glyph glyph-name="ntilde" unicode="&#xf1;" horiz-adv-x="424" 
d="M356 519q27 -42 27 -131v-388h-133v381q0 56 -29 56q-12 0 -24.5 -14.5t-20.5 -39.5v-383h-133v549h133v-55q17 31 42 49t55 18q56 0 83 -42zM111 619q-1 8 -1 22q0 90 56 90q23 0 51 -17q14 -9 21 -9q16 0 15 27l65 -10q3 -55 -10.5 -83.5t-42.5 -28.5q-15 0 -26.5 4.5
t-24.5 12.5q-14 9 -23 9q-8 0 -11 -7.5t-2 -20.5z" />
    <glyph glyph-name="ograve" unicode="&#xf2;" horiz-adv-x="414" 
d="M71.5 61.5q-47.5 73.5 -47.5 214.5q0 138 46.5 211.5t137.5 73.5q88 0 135.5 -72.5t47.5 -211.5q0 -140 -47 -214.5t-137 -74.5q-88 0 -135.5 73.5zM256 276q0 161 -49 161t-49 -160q0 -164 50 -164q48 0 48 163zM250 611l-82 -7l-86 131l113 18z" />
    <glyph glyph-name="oacute" unicode="&#xf3;" horiz-adv-x="414" 
d="M71.5 61.5q-47.5 73.5 -47.5 214.5q0 138 46.5 211.5t137.5 73.5q88 0 135.5 -72.5t47.5 -211.5q0 -140 -47 -214.5t-137 -74.5q-88 0 -135.5 73.5zM256 276q0 161 -49 161t-49 -160q0 -164 50 -164q48 0 48 163zM326 734l-86 -131l-82 7l55 142z" />
    <glyph glyph-name="ocircumflex" unicode="&#xf4;" horiz-adv-x="414" 
d="M71.5 61.5q-47.5 73.5 -47.5 214.5q0 138 46.5 211.5t137.5 73.5q88 0 135.5 -72.5t47.5 -211.5q0 -140 -47 -214.5t-137 -74.5q-88 0 -135.5 73.5zM256 276q0 161 -49 161t-49 -160q0 -164 50 -164q48 0 48 163zM281 743l46 -134l-99 -7l-20 71l-19 -71l-100 7l46 134
h146z" />
    <glyph glyph-name="otilde" unicode="&#xf5;" horiz-adv-x="414" 
d="M71.5 61.5q-47.5 73.5 -47.5 214.5q0 138 46.5 211.5t137.5 73.5q88 0 135.5 -72.5t47.5 -211.5q0 -140 -47 -214.5t-137 -74.5q-88 0 -135.5 73.5zM256 276q0 161 -49 161t-49 -160q0 -164 50 -164q48 0 48 163zM104 619q-1 8 -1 22q0 90 56 90q23 0 51 -17q14 -9 21 -9
q16 0 15 27l65 -10q3 -55 -10.5 -83.5t-42.5 -28.5q-15 0 -26.5 4.5t-24.5 12.5q-14 9 -23 9q-8 0 -11 -7.5t-2 -20.5z" />
    <glyph glyph-name="odieresis" unicode="&#xf6;" horiz-adv-x="414" 
d="M71.5 61.5q-47.5 73.5 -47.5 214.5q0 138 46.5 211.5t137.5 73.5q88 0 135.5 -72.5t47.5 -211.5q0 -140 -47 -214.5t-137 -74.5q-88 0 -135.5 73.5zM256 276q0 161 -49 161t-49 -160q0 -164 50 -164q48 0 48 163zM186 605h-95v124h95v-124zM324 605h-94v124h94v-124z" />
    <glyph glyph-name="divide" unicode="&#xf7;" horiz-adv-x="288" 
d="M210 557v-122h-132v122h132zM278 392v-101h-268v101h268zM79 128v122h132v-122h-132z" />
    <glyph glyph-name="oslash" unicode="&#xf8;" horiz-adv-x="414" 
d="M395 530l-37 -66q33 -72 33 -187q0 -140 -47 -214.5t-137 -74.5q-59 0 -100 33l-20 -36l-69 38l38 67q-32 70 -32 186q0 138 46.5 211.5t137.5 73.5q56 0 97 -30l21 37zM158 271l80 141q-12 25 -31 25q-49 0 -49 -160v-6zM256 284l-81 -143q12 -28 33 -28q48 0 48 163v8z
" />
    <glyph glyph-name="ugrave" unicode="&#xf9;" horiz-adv-x="424" 
d="M248 549h133v-549h-133v55q-17 -31 -42 -49t-55 -18q-56 0 -83 42t-27 131v388h133v-381q0 -56 29 -56q12 0 24.5 14.5t20.5 39.5v383zM242 611l-82 -7l-86 131l113 18z" />
    <glyph glyph-name="uacute" unicode="&#xfa;" horiz-adv-x="424" 
d="M248 549h133v-549h-133v55q-17 -31 -42 -49t-55 -18q-56 0 -83 42t-27 131v388h133v-381q0 -56 29 -56q12 0 24.5 14.5t20.5 39.5v383zM318 734l-86 -131l-82 7l55 142z" />
    <glyph glyph-name="ucircumflex" unicode="&#xfb;" horiz-adv-x="424" 
d="M248 549h133v-549h-133v55q-17 -31 -42 -49t-55 -18q-56 0 -83 42t-27 131v388h133v-381q0 -56 29 -56q12 0 24.5 14.5t20.5 39.5v383zM273 743l46 -134l-99 -7l-20 71l-19 -71l-100 7l46 134h146z" />
    <glyph glyph-name="udieresis" unicode="&#xfc;" horiz-adv-x="424" 
d="M248 549h133v-549h-133v55q-17 -31 -42 -49t-55 -18q-56 0 -83 42t-27 131v388h133v-381q0 -56 29 -56q12 0 24.5 14.5t20.5 39.5v383zM178 605h-95v124h95v-124zM316 605h-94v124h94v-124z" />
    <glyph glyph-name="yacute" unicode="&#xfd;" horiz-adv-x="409" 
d="M206 165l59 384h135l-119 -549l-36 -171h-135l32 157l-9 -1l-125 564h136l59 -384h3zM323 733l-86 -131l-82 7l55 142z" />
    <glyph glyph-name="thorn" unicode="&#xfe;" horiz-adv-x="434" 
d="M45 -171v909h133v-231q35 54 96 54q136 0 136 -288q0 -284 -137 -284q-60 0 -95 53v-213h-133zM273 273q0 91 -11.5 128.5t-32.5 37.5q-24 0 -37.5 -44t-13.5 -122q0 -163 51 -163q44 0 44 163z" />
    <glyph glyph-name="ydieresis" unicode="&#xff;" horiz-adv-x="409" 
d="M206 165l59 384h135l-119 -549l-36 -171h-135l32 157l-9 -1l-125 564h136l59 -384h3zM183 604h-95v124h95v-124zM321 604h-94v124h94v-124z" />
    <glyph glyph-name="Amacron" unicode="&#x100;" horiz-adv-x="456" 
d="M449 0h-141l-19 122h-123l-19 -122h-140l132 700h177zM227 507l-43 -272h87l-43 272h-1zM349 752h-240v84h240v-84z" />
    <glyph glyph-name="amacron" unicode="&#x101;" horiz-adv-x="396" 
d="M314.5 509.5q41.5 -51.5 41.5 -152.5v-357h-132v61q-30 -73 -91 -73q-53 0 -84.5 43.5t-31.5 133.5q0 79 35.5 123.5t108.5 44.5q25 0 63 -4v30q0 46 -15 65.5t-47 19.5q-20 0 -46 -7t-45 -17l-15 114q56 27 124 27q93 0 134.5 -51.5zM212 135.5q12 31.5 12 99.5v10
q-22 2 -35 2q-21 0 -33 -17.5t-12 -54.5t10 -54t26 -17q20 0 32 31.5zM312 616h-240v84h240v-84z" />
    <glyph glyph-name="Abreve" unicode="&#x102;" horiz-adv-x="456" 
d="M449 0h-141l-19 122h-123l-19 -122h-140l132 700h177zM227 507l-43 -272h87l-43 272h-1zM346 867q0 -70 -29.5 -103.5t-89.5 -33.5q-59 0 -89 32t-30 105l91 1q0 -62 28 -62q29 0 29 62z" />
    <glyph glyph-name="abreve" unicode="&#x103;" horiz-adv-x="396" 
d="M314.5 509.5q41.5 -51.5 41.5 -152.5v-357h-132v61q-30 -73 -91 -73q-53 0 -84.5 43.5t-31.5 133.5q0 79 35.5 123.5t108.5 44.5q25 0 63 -4v30q0 46 -15 65.5t-47 19.5q-20 0 -46 -7t-45 -17l-15 114q56 27 124 27q93 0 134.5 -51.5zM212 135.5q12 31.5 12 99.5v10
q-22 2 -35 2q-21 0 -33 -17.5t-12 -54.5t10 -54t26 -17q20 0 32 31.5zM311 734q0 -70 -29.5 -103.5t-89.5 -33.5q-59 0 -89 32t-30 105l91 1q0 -62 28 -62q29 0 29 62z" />
    <glyph glyph-name="Aogonek" unicode="&#x104;" horiz-adv-x="456" 
d="M471 -190q-39 -10 -72 -10q-49 0 -76 23t-27 66q0 31 16 60t41 51h-45l-19 122h-123l-19 -122h-140l132 700h177l133 -700q-37 -40 -37 -75q0 -17 10 -25.5t26 -8.5q4 0 16 2zM227 507l-43 -272h87l-43 272h-1z" />
    <glyph glyph-name="aogonek" unicode="&#x105;" horiz-adv-x="396" 
d="M378 -190q-39 -10 -72 -10q-49 0 -76 23t-27 66q0 31 16 60t41 51h-36v61q-30 -73 -91 -73q-53 0 -84.5 43.5t-31.5 133.5q0 79 35.5 123.5t108.5 44.5q25 0 63 -4v30q0 46 -15 65.5t-47 19.5q-20 0 -46 -7t-45 -17l-15 114q56 27 124 27q93 0 134.5 -51.5t41.5 -152.5
v-357q-37 -40 -37 -75q0 -17 10 -25.5t26 -8.5q4 0 16 2zM212 135.5q12 31.5 12 99.5v10q-22 2 -35 2q-21 0 -33 -17.5t-12 -54.5t10 -54t26 -17q20 0 32 31.5z" />
    <glyph glyph-name="Cacute" unicode="&#x106;" horiz-adv-x="386" 
d="M93 79.5q-63 91.5 -63 270.5q0 174 60 267.5t173 93.5q44 0 101 -21l-20 -129q-35 16 -70 16q-48 0 -71 -51t-23 -175q0 -119 22.5 -173.5t70.5 -54.5q44 0 75 17l22 -132q-16 -7 -44 -13.5t-59 -6.5q-111 0 -174 91.5zM387 847l-89 -106l-98 7l67 125z" />
    <glyph glyph-name="cacute" unicode="&#x107;" horiz-adv-x="320" 
d="M75 62q-51 74 -51 213q0 138 51 212t149 74q36 0 81 -15l-20 -124q-31 14 -54 14q-36 0 -55 -40.5t-19 -119.5q0 -162 74 -162q27 0 54 13l20 -124q-48 -15 -79 -15q-100 0 -151 74zM322 734l-86 -131l-82 7l55 142z" />
    <glyph glyph-name="Ccircumflex" unicode="&#x108;" horiz-adv-x="386" 
d="M93 79.5q-63 91.5 -63 270.5q0 174 60 267.5t173 93.5q44 0 101 -21l-20 -129q-35 16 -70 16q-48 0 -71 -51t-23 -175q0 -119 22.5 -173.5t70.5 -54.5q44 0 75 17l22 -132q-16 -7 -44 -13.5t-59 -6.5q-111 0 -174 91.5zM330 871l48 -122l-104 -7l-21 65l-21 -65l-105 7
l49 122h154z" />
    <glyph glyph-name="ccircumflex" unicode="&#x109;" horiz-adv-x="320" 
d="M75 62q-51 74 -51 213q0 138 51 212t149 74q36 0 81 -15l-20 -124q-31 14 -54 14q-36 0 -55 -40.5t-19 -119.5q0 -162 74 -162q27 0 54 13l20 -124q-48 -15 -79 -15q-100 0 -151 74zM277 743l46 -134l-99 -7l-20 71l-19 -71l-100 7l46 134h146z" />
    <glyph glyph-name="Cdotaccent" unicode="&#x10a;" horiz-adv-x="386" 
d="M93 79.5q-63 91.5 -63 270.5q0 174 60 267.5t173 93.5q44 0 101 -21l-20 -129q-35 16 -70 16q-48 0 -71 -51t-23 -175q0 -119 22.5 -173.5t70.5 -54.5q44 0 75 17l22 -132q-16 -7 -44 -13.5t-59 -6.5q-111 0 -174 91.5zM316 742h-138v119h138v-119z" />
    <glyph glyph-name="cdotaccent" unicode="&#x10b;" horiz-adv-x="320" 
d="M75 62q-51 74 -51 213q0 138 51 212t149 74q36 0 81 -15l-20 -124q-31 14 -54 14q-36 0 -55 -40.5t-19 -119.5q0 -162 74 -162q27 0 54 13l20 -124q-48 -15 -79 -15q-100 0 -151 74zM266 606h-138v124h138v-124z" />
    <glyph glyph-name="Ccaron" unicode="&#x10c;" horiz-adv-x="386" 
d="M93 79.5q-63 91.5 -63 270.5q0 174 60 267.5t173 93.5q44 0 101 -21l-20 -129q-35 16 -70 16q-48 0 -71 -51t-23 -175q0 -119 22.5 -173.5t70.5 -54.5q44 0 75 17l22 -132q-16 -7 -44 -13.5t-59 -6.5q-111 0 -174 91.5zM252 809l22 66l103 -7l-48 -122h-153l-48 122
l104 7z" />
    <glyph glyph-name="ccaron" unicode="&#x10d;" horiz-adv-x="320" 
d="M75 62q-51 74 -51 213q0 138 51 212t149 74q36 0 81 -15l-20 -124q-31 14 -54 14q-36 0 -55 -40.5t-19 -119.5q0 -162 74 -162q27 0 54 13l20 -124q-48 -15 -79 -15q-100 0 -151 74zM204 669l20 72l99 -8l-46 -135h-146l-46 135l100 8z" />
    <glyph glyph-name="Dcaron" unicode="&#x10e;" horiz-adv-x="477" 
d="M48 0v700h164q114 0 174 -89.5t60 -259.5q0 -171 -60 -261t-174 -90h-164zM205 127q49 0 71 54t22 169t-22 169t-71 54h-19v-446h19zM203 809l22 66l103 -7l-48 -122h-153l-48 122l104 7z" />
    <glyph glyph-name="dcaron" unicode="&#x10f;" horiz-adv-x="434" 
d="M24 277q0 284 137 284q59 0 95 -54v231h133v-738h-133v42q-36 -54 -96 -54q-136 0 -136 289zM412 564v174h97l-25 -174h-72zM242.5 153.5q13.5 43.5 13.5 114.5q0 86 -12 128.5t-38 42.5q-21 0 -33 -37t-12 -125q0 -92 12 -129.5t33 -37.5q23 0 36.5 43.5z" />
    <glyph glyph-name="Dcroat" unicode="&#x110;" horiz-adv-x="477" 
d="M212 700q114 0 174 -89.5t60 -259.5q0 -171 -60 -261t-174 -90h-164v316h-30v74h30v310h164zM205 127q49 0 71 54t22 169t-22 169t-71 54h-19v-183h74v-74h-74v-189h19z" />
    <glyph glyph-name="dcroat" unicode="&#x111;" horiz-adv-x="434" 
d="M434 673v-73h-45v-600h-133v42q-36 -54 -96 -54q-136 0 -136 289q0 284 137 284q59 0 95 -54v93h-55v73h55v65h133v-65h45zM242.5 153.5q13.5 43.5 13.5 114.5q0 86 -12 128.5t-38 42.5q-21 0 -33 -37t-12 -125q0 -92 12 -129.5t33 -37.5q23 0 36.5 43.5z" />
    <glyph glyph-name="Emacron" unicode="&#x112;" horiz-adv-x="380" 
d="M186 296v-171h169v-125h-307v700h303v-125h-165v-158h140v-121h-140zM322 752h-240v84h240v-84z" />
    <glyph glyph-name="emacron" unicode="&#x113;" horiz-adv-x="392" 
d="M158 231q5 -64 20.5 -94t46.5 -30q53 0 93 26l21 -112q-24 -15 -59.5 -23.5t-69.5 -8.5q-91 0 -138.5 74t-47.5 213q0 133 46 208.5t136 75.5q77 0 120 -63t43 -170q0 -42 -14 -96h-197zM243 322q2 59 -8.5 90t-32.5 31q-21 0 -31.5 -29.5t-12.5 -91.5h85zM325 614h-240
v84h240v-84z" />
    <glyph glyph-name="Ebreve" unicode="&#x114;" horiz-adv-x="380" 
d="M186 296v-171h169v-125h-307v700h303v-125h-165v-158h140v-121h-140zM320 867q0 -70 -29.5 -103.5t-89.5 -33.5q-59 0 -89 32t-30 105l91 1q0 -62 28 -62q29 0 29 62z" />
    <glyph glyph-name="ebreve" unicode="&#x115;" horiz-adv-x="392" 
d="M158 231q5 -64 20.5 -94t46.5 -30q53 0 93 26l21 -112q-24 -15 -59.5 -23.5t-69.5 -8.5q-91 0 -138.5 74t-47.5 213q0 133 46 208.5t136 75.5q77 0 120 -63t43 -170q0 -42 -14 -96h-197zM243 322q2 59 -8.5 90t-32.5 31q-21 0 -31.5 -29.5t-12.5 -91.5h85zM324 732
q0 -70 -29.5 -103.5t-89.5 -33.5q-59 0 -89 32t-30 105l91 1q0 -62 28 -62q29 0 29 62z" />
    <glyph glyph-name="Edotaccent" unicode="&#x116;" horiz-adv-x="380" 
d="M186 296v-171h169v-125h-307v700h303v-125h-165v-158h140v-121h-140zM265 742h-138v119h138v-119z" />
    <glyph glyph-name="edotaccent" unicode="&#x117;" horiz-adv-x="392" 
d="M158 231q5 -64 20.5 -94t46.5 -30q53 0 93 26l21 -112q-24 -15 -59.5 -23.5t-69.5 -8.5q-91 0 -138.5 74t-47.5 213q0 133 46 208.5t136 75.5q77 0 120 -63t43 -170q0 -42 -14 -96h-197zM243 322q2 59 -8.5 90t-32.5 31q-21 0 -31.5 -29.5t-12.5 -91.5h85zM267 606h-138
v124h138v-124z" />
    <glyph glyph-name="Eogonek" unicode="&#x118;" horiz-adv-x="380" 
d="M377 -190q-39 -10 -72 -10q-49 0 -76 23t-27 66q0 31 16 60t41 51h-211v700h303v-125h-165v-158h140v-121h-140v-171h169v-125q-37 -40 -37 -75q0 -17 10 -25.5t26 -8.5q4 0 16 2z" />
    <glyph glyph-name="eogonek" unicode="&#x119;" horiz-adv-x="392" 
d="M312 -79.5q10 -8.5 26 -8.5q4 0 16 2l7 -83q-39 -10 -72 -10q-49 0 -76 23t-27 66q0 39 28 79h-4q-91 0 -138.5 74t-47.5 213q0 133 46 208.5t136 75.5q77 0 120 -63t43 -170q0 -42 -14 -96h-197q5 -64 20.5 -94t46.5 -30q53 0 93 26l21 -112q-37 -40 -37 -75
q0 -17 10 -25.5zM170.5 413.5q-10.5 -29.5 -12.5 -91.5h85q2 59 -8.5 90t-32.5 31q-21 0 -31.5 -29.5z" />
    <glyph glyph-name="Ecaron" unicode="&#x11a;" horiz-adv-x="380" 
d="M186 296v-171h169v-125h-307v700h303v-125h-165v-158h140v-121h-140zM200 809l22 66l103 -7l-48 -122h-153l-48 122l104 7z" />
    <glyph glyph-name="ecaron" unicode="&#x11b;" horiz-adv-x="392" 
d="M158 231q5 -64 20.5 -94t46.5 -30q53 0 93 26l21 -112q-24 -15 -59.5 -23.5t-69.5 -8.5q-91 0 -138.5 74t-47.5 213q0 133 46 208.5t136 75.5q77 0 120 -63t43 -170q0 -42 -14 -96h-197zM243 322q2 59 -8.5 90t-32.5 31q-21 0 -31.5 -29.5t-12.5 -91.5h85zM204 669l20 72
l99 -8l-46 -135h-146l-46 135l100 8z" />
    <glyph glyph-name="Gcircumflex" unicode="&#x11c;" horiz-adv-x="439" 
d="M247 382h163v-332q-40 -31 -76.5 -46.5t-90.5 -15.5q-213 0 -213 361q0 182 59 272.5t171 90.5q60 0 117 -23l-21 -133q-18 9 -43 15.5t-41 6.5q-36 0 -56.5 -22.5t-29 -71.5t-8.5 -135q0 -118 16 -174.5t54 -56.5q20 0 35 10v137h-36v117zM335 871l48 -122l-104 -7
l-21 65l-21 -65l-105 7l49 122h154z" />
    <glyph glyph-name="gcircumflex" unicode="&#x11d;" horiz-adv-x="385" 
d="M224 141q75 0 117 -37.5t42 -108.5q0 -80 -52 -128.5t-146 -48.5q-75 0 -116.5 36t-41.5 105q0 53 47 97q-44 23 -44 88q0 26 12.5 50.5t32.5 42.5q-45 50 -45 141q0 84 43.5 133.5t121.5 49.5q46 0 74 -17l82 39l33 -91l-48 -22q25 -41 25 -92q0 -87 -42.5 -137.5
t-122.5 -50.5q-18 0 -36 3q-11 -16 -11 -28q0 -24 35 -24h40zM169 437.5q-9 -20.5 -9 -58.5q0 -40 9 -62.5t26 -22.5q18 0 27 22t9 62q0 37 -9 58.5t-27 21.5q-17 0 -26 -20.5zM233.5 -56.5q13.5 17.5 13.5 44.5q0 54 -51 54h-28q-19 -27 -19 -59q0 -31 12 -44t35 -13
q24 0 37.5 17.5zM266 747l46 -134l-99 -7l-20 71l-19 -71l-100 7l46 134h146z" />
    <glyph glyph-name="Gbreve" unicode="&#x11e;" horiz-adv-x="439" 
d="M247 382h163v-332q-40 -31 -76.5 -46.5t-90.5 -15.5q-213 0 -213 361q0 182 59 272.5t171 90.5q60 0 117 -23l-21 -133q-18 9 -43 15.5t-41 6.5q-36 0 -56.5 -22.5t-29 -71.5t-8.5 -135q0 -118 16 -174.5t54 -56.5q20 0 35 10v137h-36v117zM376 867q0 -70 -29.5 -103.5
t-89.5 -33.5q-59 0 -89 32t-30 105l91 1q0 -62 28 -62q29 0 29 62z" />
    <glyph glyph-name="gbreve" unicode="&#x11f;" horiz-adv-x="385" 
d="M224 141q75 0 117 -37.5t42 -108.5q0 -80 -52 -128.5t-146 -48.5q-75 0 -116.5 36t-41.5 105q0 53 47 97q-44 23 -44 88q0 26 12.5 50.5t32.5 42.5q-45 50 -45 141q0 84 43.5 133.5t121.5 49.5q46 0 74 -17l82 39l33 -91l-48 -22q25 -41 25 -92q0 -87 -42.5 -137.5
t-122.5 -50.5q-18 0 -36 3q-11 -16 -11 -28q0 -24 35 -24h40zM169 437.5q-9 -20.5 -9 -58.5q0 -40 9 -62.5t26 -22.5q18 0 27 22t9 62q0 37 -9 58.5t-27 21.5q-17 0 -26 -20.5zM233.5 -56.5q13.5 17.5 13.5 44.5q0 54 -51 54h-28q-19 -27 -19 -59q0 -31 12 -44t35 -13
q24 0 37.5 17.5zM312 736q0 -70 -29.5 -103.5t-89.5 -33.5q-59 0 -89 32t-30 105l91 1q0 -62 28 -62q29 0 29 62z" />
    <glyph glyph-name="Gdotaccent" unicode="&#x120;" horiz-adv-x="439" 
d="M247 382h163v-332q-40 -31 -76.5 -46.5t-90.5 -15.5q-213 0 -213 361q0 182 59 272.5t171 90.5q60 0 117 -23l-21 -133q-18 9 -43 15.5t-41 6.5q-36 0 -56.5 -22.5t-29 -71.5t-8.5 -135q0 -118 16 -174.5t54 -56.5q20 0 35 10v137h-36v117zM321 742h-138v119h138v-119z
" />
    <glyph glyph-name="gdotaccent" unicode="&#x121;" horiz-adv-x="385" 
d="M224 141q75 0 117 -37.5t42 -108.5q0 -80 -52 -128.5t-146 -48.5q-75 0 -116.5 36t-41.5 105q0 53 47 97q-44 23 -44 88q0 26 12.5 50.5t32.5 42.5q-45 50 -45 141q0 84 43.5 133.5t121.5 49.5q46 0 74 -17l82 39l33 -91l-48 -22q25 -41 25 -92q0 -87 -42.5 -137.5
t-122.5 -50.5q-18 0 -36 3q-11 -16 -11 -28q0 -24 35 -24h40zM169 437.5q-9 -20.5 -9 -58.5q0 -40 9 -62.5t26 -22.5q18 0 27 22t9 62q0 37 -9 58.5t-27 21.5q-17 0 -26 -20.5zM233.5 -56.5q13.5 17.5 13.5 44.5q0 54 -51 54h-28q-19 -27 -19 -59q0 -31 12 -44t35 -13
q24 0 37.5 17.5zM255 610h-138v124h138v-124z" />
    <glyph glyph-name="uni0122" unicode="&#x122;" horiz-adv-x="439" 
d="M247 382h163v-332q-40 -31 -76.5 -46.5t-90.5 -15.5q-213 0 -213 361q0 182 59 272.5t171 90.5q60 0 117 -23l-21 -133q-18 9 -43 15.5t-41 6.5q-36 0 -56.5 -22.5t-29 -71.5t-8.5 -135q0 -118 16 -174.5t54 -56.5q20 0 35 10v137h-36v117zM167 -187q28 12 40 28.5
t10 39.5h-51v82h117q8 -29 8 -60q0 -52 -27 -84t-76 -50z" />
    <glyph glyph-name="uni0123" unicode="&#x123;" horiz-adv-x="385" 
d="M224 141q75 0 117 -37.5t42 -108.5q0 -80 -52 -128.5t-146 -48.5q-75 0 -116.5 36t-41.5 105q0 53 47 97q-44 23 -44 88q0 26 12.5 50.5t32.5 42.5q-45 50 -45 141q0 84 43.5 133.5t121.5 49.5q46 0 74 -17l82 39l33 -91l-48 -22q25 -41 25 -92q0 -87 -42.5 -137.5
t-122.5 -50.5q-18 0 -36 3q-11 -16 -11 -28q0 -24 35 -24h40zM169 437.5q-9 -20.5 -9 -58.5q0 -40 9 -62.5t26 -22.5q18 0 27 22t9 62q0 37 -9 58.5t-27 21.5q-17 0 -26 -20.5zM233.5 -56.5q13.5 17.5 13.5 44.5q0 54 -51 54h-28q-19 -27 -19 -59q0 -31 12 -44t35 -13
q24 0 37.5 17.5zM253 746q-28 -12 -40 -28.5t-10 -39.5h52v-82h-118q-8 29 -8 60q0 52 27 84t76 50z" />
    <glyph glyph-name="Hcircumflex" unicode="&#x124;" horiz-adv-x="488" 
d="M296 412v288h145v-700h-145v286h-105v-286h-143v700h143v-288h105zM321 871l48 -122l-104 -7l-21 65l-21 -65l-105 7l49 122h154z" />
    <glyph glyph-name="hcircumflex" unicode="&#x125;" horiz-adv-x="426" 
d="M358 519q27 -42 27 -131v-388h-133v381q0 56 -28 56q-20 0 -33 -26t-13 -82v-329h-133v738h133v-237q36 60 98 60q55 0 82 -42zM299 891l48 -122l-104 -7l-21 65l-21 -65l-105 7l49 122h154z" />
    <glyph glyph-name="Hbar" unicode="&#x126;" horiz-adv-x="488" 
d="M441 601h29v-82h-29v-519h-145v286h-105v-286h-143v519h-31v82h31v99h143v-99h105v99h145v-99zM191 412h105v107h-105v-107z" />
    <glyph glyph-name="hbar" unicode="&#x127;" horiz-adv-x="426" 
d="M358 519q27 -42 27 -131v-388h-133v381q0 56 -28 56q-20 0 -33 -26t-13 -82v-329h-133v589h-52v73h52v76h133v-76h48v-73h-48v-88q36 60 98 60q55 0 82 -42z" />
    <glyph glyph-name="Itilde" unicode="&#x128;" horiz-adv-x="234" 
d="M186 0h-138v700h138v-700zM13 753q-1 8 -1 22q0 90 56 90q23 0 51 -17q14 -9 21 -9q16 0 15 27l65 -10q3 -55 -10.5 -83.5t-42.5 -28.5q-15 0 -26.5 4.5t-24.5 12.5q-14 9 -23 9q-8 0 -11 -7.5t-2 -20.5z" />
    <glyph glyph-name="itilde" unicode="&#x129;" horiz-adv-x="219" 
d="M176 0h-133v549h133v-549zM6 619q-1 8 -1 22q0 90 56 90q23 0 51 -17q14 -9 21 -9q16 0 15 27l65 -10q3 -55 -10.5 -83.5t-42.5 -28.5q-15 0 -26.5 4.5t-24.5 12.5q-14 9 -23 9q-8 0 -11 -7.5t-2 -20.5z" />
    <glyph glyph-name="Imacron" unicode="&#x12a;" horiz-adv-x="234" 
d="M186 0h-138v700h138v-700zM237 752h-240v84h240v-84z" />
    <glyph glyph-name="imacron" unicode="&#x12b;" horiz-adv-x="219" 
d="M176 0h-133v549h133v-549zM230 614h-240v84h240v-84z" />
    <glyph glyph-name="Ibreve" unicode="&#x12c;" horiz-adv-x="234" 
d="M186 0h-138v700h138v-700zM235 867q0 -70 -29.5 -103.5t-89.5 -33.5q-59 0 -89 32t-30 105l91 1q0 -62 28 -62q29 0 29 62z" />
    <glyph glyph-name="ibreve" unicode="&#x12d;" horiz-adv-x="219" 
d="M176 0h-133v549h133v-549zM228 732q0 -70 -29.5 -103.5t-89.5 -33.5q-59 0 -89 32t-30 105l91 1q0 -62 28 -62q29 0 29 62z" />
    <glyph glyph-name="Iogonek" unicode="&#x12e;" horiz-adv-x="234" 
d="M208 -190q-39 -10 -72 -10q-49 0 -76 23t-27 66q0 31 16 60t41 51h-42v700h138v-700q-37 -40 -37 -75q0 -17 10 -25.5t26 -8.5q4 0 16 2z" />
    <glyph glyph-name="iogonek" unicode="&#x12f;" horiz-adv-x="219" 
d="M34 730h138v-124h-138v124zM198 -190q-39 -10 -72 -10q-49 0 -76 23t-27 66q0 31 16 60t41 51h-37v549h133v-549q-37 -40 -37 -75q0 -17 10 -25.5t26 -8.5q4 0 16 2z" />
    <glyph glyph-name="Idotaccent" unicode="&#x130;" horiz-adv-x="234" 
d="M186 0h-138v700h138v-700zM180 742h-138v119h138v-119z" />
    <glyph glyph-name="dotlessi" unicode="&#x131;" horiz-adv-x="219" 
d="M176 0h-133v549h133v-549z" />
    <glyph glyph-name="IJ" unicode="&#x132;" horiz-adv-x="549" 
d="M186 0h-138v700h138v-700zM270.5 -7q-25.5 5 -30.5 6l19 124q24 -3 50 -3q31 0 47 24t16 84v347h-58v125h196v-476q0 -120 -51 -178t-143 -58q-20 0 -45.5 5z" />
    <glyph glyph-name="ij" unicode="&#x133;" horiz-adv-x="441" 
d="M176 0h-133v549h133v-549zM172 606h-138v124h138v-124zM216 -65q6 1 21 1t21.5 14t6.5 50v549h133v-549q0 -93 -33 -135.5t-103 -42.5q-28 0 -46 6v107zM393 606h-138v124h138v-124z" />
    <glyph glyph-name="Jcircumflex" unicode="&#x134;" horiz-adv-x="315" 
d="M36.5 -7q-25.5 5 -30.5 6l19 124q24 -3 50 -3q31 0 47 24t16 84v347h-58v125h196v-476q0 -120 -51 -178t-143 -58q-20 0 -45.5 5zM239 871l48 -122l-104 -7l-21 65l-21 -65l-105 7l49 122h154z" />
    <glyph glyph-name="jcircumflex" unicode="&#x135;" horiz-adv-x="222" 
d="M-3 -65q6 1 21 1t21.5 14t6.5 50v549h133v-549q0 -93 -33 -135.5t-103 -42.5q-28 0 -46 6v107zM184 743l46 -134l-99 -7l-20 71l-19 -71l-100 7l46 134h146z" />
    <glyph glyph-name="uni0136" unicode="&#x136;" horiz-adv-x="467" 
d="M306 356l153 -356h-150l-123 304v-304h-138v700h138v-292l118 292h148zM186 -187q28 12 40 28.5t10 39.5h-51v82h117q8 -29 8 -60q0 -52 -27 -84t-76 -50z" />
    <glyph glyph-name="uni0137" unicode="&#x137;" horiz-adv-x="419" 
d="M296 280l116 -280h-142l-92 239v-239h-133v738h133v-417l89 228h143zM154 -187q28 12 40 28.5t10 39.5h-51v82h117q8 -29 8 -60q0 -52 -27 -84t-76 -50z" />
    <glyph glyph-name="kgreenlandic" unicode="&#x138;" horiz-adv-x="419" 
d="M296 280l116 -280h-142l-92 239v-239h-133v549h133v-228l89 228h143z" />
    <glyph glyph-name="Lacute" unicode="&#x139;" horiz-adv-x="348" 
d="M338 0h-290v700h144v-575h146v-125zM258 847l-89 -106l-98 7l67 125z" />
    <glyph glyph-name="lacute" unicode="&#x13a;" horiz-adv-x="223" 
d="M178 0h-133v738h133v-738zM249 885l-89 -106l-98 7l67 125z" />
    <glyph glyph-name="uni013B" unicode="&#x13b;" horiz-adv-x="348" 
d="M338 0h-290v700h144v-575h146v-125zM118 -187q28 12 40 28.5t10 39.5h-51v82h117q8 -29 8 -60q0 -52 -27 -84t-76 -50z" />
    <glyph glyph-name="uni013C" unicode="&#x13c;" horiz-adv-x="223" 
d="M178 0h-133v738h133v-738zM55 -187q28 12 40 28.5t10 39.5h-51v82h117q8 -29 8 -60q0 -52 -27 -84t-76 -50z" />
    <glyph glyph-name="Lcaron" unicode="&#x13d;" horiz-adv-x="348" 
d="M338 0h-290v700h144v-575h146v-125zM288 526v174h105l-26 -174h-79z" />
    <glyph glyph-name="lcaron" unicode="&#x13e;" horiz-adv-x="223" 
d="M178 0h-133v738h133v-738zM217 564v174h95l-24 -174h-71z" />
    <glyph glyph-name="Ldot" unicode="&#x13f;" horiz-adv-x="489" 
d="M338 0h-290v700h144v-575h146v-125zM356 212v104h113v-104h-113z" />
    <glyph glyph-name="ldot" unicode="&#x140;" horiz-adv-x="342" 
d="M178 0h-133v738h133v-738zM239 165v81h88v-81h-88z" />
    <glyph glyph-name="Lslash" unicode="&#x141;" horiz-adv-x="348" 
d="M192 343v-218h146v-125h-290v277l-25 -12l-32 64l57 27v344h144v-277l24 11l31 -65z" />
    <glyph glyph-name="lslash" unicode="&#x142;" horiz-adv-x="223" 
d="M211 453l31 -65l-64 -30v-358h-133v297l-27 -13l-32 64l59 28v362h133v-300z" />
    <glyph glyph-name="Nacute" unicode="&#x143;" horiz-adv-x="476" 
d="M180 0h-132v700h123l125 -360v360h132v-700h-118l-130 373v-373zM372 847l-89 -106l-98 7l67 125z" />
    <glyph glyph-name="nacute" unicode="&#x144;" horiz-adv-x="424" 
d="M356 519q27 -42 27 -131v-388h-133v381q0 56 -29 56q-12 0 -24.5 -14.5t-20.5 -39.5v-383h-133v549h133v-55q17 31 42 49t55 18q56 0 83 -42zM334 734l-86 -131l-82 7l55 142z" />
    <glyph glyph-name="uni0145" unicode="&#x145;" horiz-adv-x="476" 
d="M180 0h-132v700h123l125 -360v360h132v-700h-118l-130 373v-373zM178 -187q28 12 40 28.5t10 39.5h-51v82h117q8 -29 8 -60q0 -52 -27 -84t-76 -50z" />
    <glyph glyph-name="uni0146" unicode="&#x146;" horiz-adv-x="424" 
d="M356 519q27 -42 27 -131v-388h-133v381q0 56 -29 56q-12 0 -24.5 -14.5t-20.5 -39.5v-383h-133v549h133v-55q17 31 42 49t55 18q56 0 83 -42zM155 -187q28 12 40 28.5t10 39.5h-51v82h117q8 -29 8 -60q0 -52 -27 -84t-76 -50z" />
    <glyph glyph-name="Ncaron" unicode="&#x147;" horiz-adv-x="476" 
d="M180 0h-132v700h123l125 -360v360h132v-700h-118l-130 373v-373zM237 809l22 66l103 -7l-48 -122h-153l-48 122l104 7z" />
    <glyph glyph-name="ncaron" unicode="&#x148;" horiz-adv-x="424" 
d="M356 519q27 -42 27 -131v-388h-133v381q0 56 -29 56q-12 0 -24.5 -14.5t-20.5 -39.5v-383h-133v549h133v-55q17 31 42 49t55 18q56 0 83 -42zM215 669l20 72l99 -8l-46 -135h-146l-46 135l100 8z" />
    <glyph glyph-name="Eng" unicode="&#x14a;" horiz-adv-x="476" 
d="M296 700h132v-711q0 -72 -34.5 -112.5t-107.5 -40.5q-33 0 -82 17l19 115q21 -11 41 -11q30 0 30 43v46l-114 327v-373h-132v700h123l125 -360v360z" />
    <glyph glyph-name="eng" unicode="&#x14b;" horiz-adv-x="422" 
d="M356 519q27 -42 27 -131v-399q0 -72 -34.5 -112.5t-106.5 -40.5q-34 0 -81 17l18 115q21 -11 41 -11q30 0 30 43v381q0 56 -29 56q-12 0 -24.5 -14.5t-20.5 -39.5v-383h-133v549h133v-55q17 31 42 49t55 18q56 0 83 -42z" />
    <glyph glyph-name="Omacron" unicode="&#x14c;" horiz-adv-x="473" 
d="M30 350q0 362 206 362q102 0 154.5 -88t52.5 -274q0 -362 -207 -362q-206 0 -206 362zM270.5 144.5q12.5 21.5 18 70.5t5.5 135t-5 134.5t-17.5 70.5t-35.5 22q-21 0 -33.5 -21.5t-18 -71t-5.5 -134.5t5 -133.5t17.5 -71t34.5 -22.5t34.5 21.5zM357 752h-240v84h240v-84z
" />
    <glyph glyph-name="omacron" unicode="&#x14d;" horiz-adv-x="414" 
d="M71.5 61.5q-47.5 73.5 -47.5 214.5q0 138 46.5 211.5t137.5 73.5q88 0 135.5 -72.5t47.5 -211.5q0 -140 -47 -214.5t-137 -74.5q-88 0 -135.5 73.5zM256 276q0 161 -49 161t-49 -160q0 -164 50 -164q48 0 48 163zM328 614h-240v84h240v-84z" />
    <glyph glyph-name="Obreve" unicode="&#x14e;" horiz-adv-x="473" 
d="M30 350q0 362 206 362q102 0 154.5 -88t52.5 -274q0 -362 -207 -362q-206 0 -206 362zM270.5 144.5q12.5 21.5 18 70.5t5.5 135t-5 134.5t-17.5 70.5t-35.5 22q-21 0 -33.5 -21.5t-18 -71t-5.5 -134.5t5 -133.5t17.5 -71t34.5 -22.5t34.5 21.5zM355 867
q0 -70 -29.5 -103.5t-89.5 -33.5q-59 0 -89 32t-30 105l91 1q0 -62 28 -62q29 0 29 62z" />
    <glyph glyph-name="obreve" unicode="&#x14f;" horiz-adv-x="414" 
d="M71.5 61.5q-47.5 73.5 -47.5 214.5q0 138 46.5 211.5t137.5 73.5q88 0 135.5 -72.5t47.5 -211.5q0 -140 -47 -214.5t-137 -74.5q-88 0 -135.5 73.5zM256 276q0 161 -49 161t-49 -160q0 -164 50 -164q48 0 48 163zM327 732q0 -70 -29.5 -103.5t-89.5 -33.5q-59 0 -89 32
t-30 105l91 1q0 -62 28 -62q29 0 29 62z" />
    <glyph glyph-name="Ohungarumlaut" unicode="&#x150;" horiz-adv-x="473" 
d="M30 350q0 362 206 362q102 0 154.5 -88t52.5 -274q0 -362 -207 -362q-206 0 -206 362zM270.5 144.5q12.5 21.5 18 70.5t5.5 135t-5 134.5t-17.5 70.5t-35.5 22q-21 0 -33.5 -21.5t-18 -71t-5.5 -134.5t5 -133.5t17.5 -71t34.5 -22.5t34.5 21.5zM276 850l-75 -106l-95 7
l52 125zM430 850l-76 -106l-94 7l52 125z" />
    <glyph glyph-name="ohungarumlaut" unicode="&#x151;" horiz-adv-x="414" 
d="M71.5 61.5q-47.5 73.5 -47.5 214.5q0 138 46.5 211.5t137.5 73.5q88 0 135.5 -72.5t47.5 -211.5q0 -140 -47 -214.5t-137 -74.5q-88 0 -135.5 73.5zM256 276q0 161 -49 161t-49 -160q0 -164 50 -164q48 0 48 163zM246 734l-70 -131l-80 7l40 142zM383 734l-71 -131l-80 7
l40 142z" />
    <glyph glyph-name="OE" unicode="&#x152;" horiz-adv-x="665" 
d="M640 125v-125h-292q-40 -12 -81 -12q-111 0 -174 91.5t-63 270.5q0 174 60 267.5t173 93.5q29 0 70 -11h303v-125h-165v-158h140v-121h-140v-171h169zM202.5 177.5q22.5 -54.5 70.5 -54.5q32 0 60 10v433q-28 11 -59 11q-48 0 -71 -51t-23 -175q0 -119 22.5 -173.5z" />
    <glyph glyph-name="oe" unicode="&#x153;" horiz-adv-x="629" 
d="M395 231q5 -64 20.5 -94t46.5 -30q53 0 93 26l21 -112q-24 -15 -59.5 -23.5t-69.5 -8.5q-75 0 -120 50q-45 -51 -120 -51q-88 0 -135.5 73.5t-47.5 214.5q0 138 46.5 211.5t137.5 73.5q74 0 119 -50q46 49 116 49q77 0 120 -63t43 -170q0 -42 -14 -96h-197zM480 322
q2 59 -8.5 90t-32.5 31q-21 0 -31.5 -29.5t-12.5 -91.5h85zM256 276q0 161 -49 161t-49 -160q0 -164 50 -164q48 0 48 163z" />
    <glyph glyph-name="Racute" unicode="&#x154;" horiz-adv-x="439" 
d="M279 0l-73 226h-20v-226h-138v700h159q97 0 153 -61t56 -175q0 -68 -21.5 -120t-62.5 -82l92 -262h-145zM186 578v-230h18q34 0 53.5 30t19.5 86q0 52 -19 83t-54 31h-18zM357 847l-89 -106l-98 7l67 125z" />
    <glyph glyph-name="racute" unicode="&#x155;" horiz-adv-x="279" 
d="M259.5 555.5q8.5 -1.5 12.5 -3.5l-9 -148q-15 7 -36 7q-51 0 -51 -137v-274h-133v549h133v-47q26 55 70 55q5 0 13.5 -1.5zM260 734l-86 -131l-82 7l55 142z" />
    <glyph glyph-name="uni0156" unicode="&#x156;" horiz-adv-x="439" 
d="M279 0l-73 226h-20v-226h-138v700h159q97 0 153 -61t56 -175q0 -68 -21.5 -120t-62.5 -82l92 -262h-145zM186 578v-230h18q34 0 53.5 30t19.5 86q0 52 -19 83t-54 31h-18zM166 -187q28 12 40 28.5t10 39.5h-51v82h117q8 -29 8 -60q0 -52 -27 -84t-76 -50z" />
    <glyph glyph-name="uni0157" unicode="&#x157;" horiz-adv-x="279" 
d="M259.5 555.5q8.5 -1.5 12.5 -3.5l-9 -148q-15 7 -36 7q-51 0 -51 -137v-274h-133v549h133v-47q26 55 70 55q5 0 13.5 -1.5zM50 -187q28 12 40 28.5t10 39.5h-51v82h117q8 -29 8 -60q0 -52 -27 -84t-76 -50z" />
    <glyph glyph-name="Rcaron" unicode="&#x158;" horiz-adv-x="439" 
d="M279 0l-73 226h-20v-226h-138v700h159q97 0 153 -61t56 -175q0 -68 -21.5 -120t-62.5 -82l92 -262h-145zM186 578v-230h18q34 0 53.5 30t19.5 86q0 52 -19 83t-54 31h-18zM222 809l22 66l103 -7l-48 -122h-153l-48 122l104 7z" />
    <glyph glyph-name="rcaron" unicode="&#x159;" horiz-adv-x="279" 
d="M259.5 555.5q8.5 -1.5 12.5 -3.5l-9 -148q-15 7 -36 7q-51 0 -51 -137v-274h-133v549h133v-47q26 55 70 55q5 0 13.5 -1.5zM142 669l20 72l99 -8l-46 -135h-146l-46 135l100 8z" />
    <glyph glyph-name="Sacute" unicode="&#x15a;" horiz-adv-x="358" 
d="M19 17l19 129q52 -30 92 -30q31 0 47.5 17.5t16.5 52.5q0 25 -16.5 51t-51.5 68q-49 58 -77 107t-28 107q0 91 47 142t129 51q58 0 128 -27l-19 -129q-47 25 -81 25q-27 0 -42.5 -16.5t-15.5 -47.5q0 -27 16.5 -53t52.5 -69q49 -57 76 -106t27 -112q0 -86 -49.5 -138
t-131.5 -52q-70 0 -139 30zM331 847l-89 -106l-98 7l67 125z" />
    <glyph glyph-name="sacute" unicode="&#x15b;" horiz-adv-x="322" 
d="M17 10l18 121q19 -10 44.5 -16.5t46.5 -6.5q19 0 30 11.5t11 32.5q0 20 -15 39t-48 47q-39 35 -61 71t-22 90q0 78 44 120t113 42q50 0 108 -21l-19 -120q-43 22 -74 22q-19 0 -29.5 -11.5t-10.5 -31.5q0 -23 14 -41t43 -44q45 -40 68 -79.5t23 -89.5q0 -72 -42.5 -114
t-116.5 -42q-57 0 -125 21zM281 734l-86 -131l-82 7l55 142z" />
    <glyph glyph-name="Scircumflex" unicode="&#x15c;" horiz-adv-x="358" 
d="M19 17l19 129q52 -30 92 -30q31 0 47.5 17.5t16.5 52.5q0 25 -16.5 51t-51.5 68q-49 58 -77 107t-28 107q0 91 47 142t129 51q58 0 128 -27l-19 -129q-47 25 -81 25q-27 0 -42.5 -16.5t-15.5 -47.5q0 -27 16.5 -53t52.5 -69q49 -57 76 -106t27 -112q0 -86 -49.5 -138
t-131.5 -52q-70 0 -139 30zM275 871l48 -122l-104 -7l-21 65l-21 -65l-105 7l49 122h154z" />
    <glyph glyph-name="scircumflex" unicode="&#x15d;" horiz-adv-x="322" 
d="M17 10l18 121q19 -10 44.5 -16.5t46.5 -6.5q19 0 30 11.5t11 32.5q0 20 -15 39t-48 47q-39 35 -61 71t-22 90q0 78 44 120t113 42q50 0 108 -21l-19 -120q-43 22 -74 22q-19 0 -29.5 -11.5t-10.5 -31.5q0 -23 14 -41t43 -44q45 -40 68 -79.5t23 -89.5q0 -72 -42.5 -114
t-116.5 -42q-57 0 -125 21zM236 743l46 -134l-99 -7l-20 71l-19 -71l-100 7l46 134h146z" />
    <glyph glyph-name="Scedilla" unicode="&#x15e;" horiz-adv-x="358" 
d="M305.5 58.5q-33.5 -48.5 -92.5 -64.5l-8 -29q34 -6 53 -24t19 -44q0 -35 -32.5 -55t-90.5 -20q-39 0 -68 6l13 64q20 -6 41 -6q33 0 33 20q0 28 -56 25l16 57q-59 4 -114 29l19 129q52 -30 92 -30q31 0 47.5 17.5t16.5 52.5q0 25 -16.5 51t-51.5 68q-49 58 -77 107
t-28 107q0 91 47 142t129 51q58 0 128 -27l-19 -129q-47 25 -81 25q-27 0 -42.5 -16.5t-15.5 -47.5q0 -27 16.5 -53t52.5 -69q49 -57 76 -106t27 -112q0 -70 -33.5 -118.5z" />
    <glyph glyph-name="scedilla" unicode="&#x15f;" horiz-adv-x="322" 
d="M191 -35q34 -6 53 -24t19 -44q0 -35 -32.5 -55t-90.5 -20q-39 0 -68 6l13 64q20 -6 41 -6q33 0 33 20q0 28 -56 25l16 59q-49 3 -102 20l18 121q19 -10 44.5 -16.5t46.5 -6.5q19 0 30 11.5t11 32.5q0 20 -15 39t-48 47q-39 35 -61 71t-22 90q0 78 44 120t113 42
q50 0 108 -21l-19 -120q-43 22 -74 22q-19 0 -29.5 -11.5t-10.5 -31.5q0 -23 14 -41t43 -44q45 -40 68 -79.5t23 -89.5q0 -56 -26.5 -95t-74.5 -53z" />
    <glyph glyph-name="Scaron" unicode="&#x160;" horiz-adv-x="358" 
d="M19 17l19 129q52 -30 92 -30q31 0 47.5 17.5t16.5 52.5q0 25 -16.5 51t-51.5 68q-49 58 -77 107t-28 107q0 91 47 142t129 51q58 0 128 -27l-19 -129q-47 25 -81 25q-27 0 -42.5 -16.5t-15.5 -47.5q0 -27 16.5 -53t52.5 -69q49 -57 76 -106t27 -112q0 -86 -49.5 -138
t-131.5 -52q-70 0 -139 30zM196 809l22 66l103 -7l-48 -122h-153l-48 122l104 7z" />
    <glyph glyph-name="scaron" unicode="&#x161;" horiz-adv-x="322" 
d="M17 10l18 121q19 -10 44.5 -16.5t46.5 -6.5q19 0 30 11.5t11 32.5q0 20 -15 39t-48 47q-39 35 -61 71t-22 90q0 78 44 120t113 42q50 0 108 -21l-19 -120q-43 22 -74 22q-19 0 -29.5 -11.5t-10.5 -31.5q0 -23 14 -41t43 -44q45 -40 68 -79.5t23 -89.5q0 -72 -42.5 -114
t-116.5 -42q-57 0 -125 21zM163 669l20 72l99 -8l-46 -135h-146l-46 135l100 8z" />
    <glyph glyph-name="uni0162" unicode="&#x162;" horiz-adv-x="361" 
d="M249 0h-29l-10 -35q34 -6 53 -24t19 -44q0 -35 -32.5 -55t-90.5 -20q-39 0 -68 6l13 64q20 -6 41 -6q33 0 33 20q0 28 -56 25l19 69h-30v573h-101v127h341v-127h-102v-573z" />
    <glyph glyph-name="uni0163" unicode="&#x163;" horiz-adv-x="308" 
d="M175 -37q34 -6 53 -24t19 -44q0 -35 -32.5 -55t-90.5 -20q-40 0 -68 6l13 64q19 -6 41 -6q33 0 33 20q0 28 -56 25l21 76h10q-59 35 -59 144v284h-41v65l119 169h55v-118h94v-116h-94v-274q0 -24 7.5 -35.5t25.5 -11.5q20 0 47 10l20 -116q-57 -18 -102 -18h-8z" />
    <glyph glyph-name="Tcaron" unicode="&#x164;" horiz-adv-x="361" 
d="M10 700h341v-127h-102v-573h-138v573h-101v127zM180 809l22 66l103 -7l-48 -122h-153l-48 122l104 7z" />
    <glyph glyph-name="tcaron" unicode="&#x165;" horiz-adv-x="308" 
d="M92 27.5q-33 39.5 -33 121.5v284h-41v65l119 169h55v-118h94v-116h-94v-274q0 -24 7.5 -35.5t25.5 -11.5q20 0 47 10l20 -116q-57 -18 -102 -18q-65 0 -98 39.5zM222 575v174h105l-26 -174h-79z" />
    <glyph glyph-name="Tbar" unicode="&#x166;" horiz-adv-x="361" 
d="M351 700v-127h-102v-183h54v-74h-54v-316h-138v316h-50v74h50v183h-101v127h341z" />
    <glyph glyph-name="tbar" unicode="&#x167;" horiz-adv-x="308" 
d="M292 6q-57 -18 -102 -18q-65 0 -98 39.5t-33 121.5v107h-64v73h64v104h-41v65l119 169h55v-118h94v-116h-94v-104h36v-73h-36v-97q0 -24 7.5 -35.5t25.5 -11.5q20 0 47 10z" />
    <glyph glyph-name="Utilde" unicode="&#x168;" horiz-adv-x="446" 
d="M87.5 39q-48.5 51 -48.5 141v520h139v-517q0 -34 11.5 -52.5t33.5 -18.5t34 18.5t12 52.5v517h138v-520q0 -90 -48.5 -141t-135.5 -51t-135.5 51zM120 753q-1 8 -1 22q0 90 56 90q23 0 51 -17q14 -9 21 -9q16 0 15 27l65 -10q3 -55 -10.5 -83.5t-42.5 -28.5
q-15 0 -26.5 4.5t-24.5 12.5q-14 9 -23 9q-8 0 -11 -7.5t-2 -20.5z" />
    <glyph glyph-name="utilde" unicode="&#x169;" horiz-adv-x="424" 
d="M248 549h133v-549h-133v55q-17 -31 -42 -49t-55 -18q-56 0 -83 42t-27 131v388h133v-381q0 -56 29 -56q12 0 24.5 14.5t20.5 39.5v383zM96 619q-1 8 -1 22q0 90 56 90q23 0 51 -17q14 -9 21 -9q16 0 15 27l65 -10q3 -55 -10.5 -83.5t-42.5 -28.5q-15 0 -26.5 4.5
t-24.5 12.5q-14 9 -23 9q-8 0 -11 -7.5t-2 -20.5z" />
    <glyph glyph-name="Umacron" unicode="&#x16a;" horiz-adv-x="446" 
d="M87.5 39q-48.5 51 -48.5 141v520h139v-517q0 -34 11.5 -52.5t33.5 -18.5t34 18.5t12 52.5v517h138v-520q0 -90 -48.5 -141t-135.5 -51t-135.5 51zM344 752h-240v84h240v-84z" />
    <glyph glyph-name="umacron" unicode="&#x16b;" horiz-adv-x="424" 
d="M248 549h133v-549h-133v55q-17 -31 -42 -49t-55 -18q-56 0 -83 42t-27 131v388h133v-381q0 -56 29 -56q12 0 24.5 14.5t20.5 39.5v383zM320 614h-240v84h240v-84z" />
    <glyph glyph-name="Ubreve" unicode="&#x16c;" horiz-adv-x="446" 
d="M87.5 39q-48.5 51 -48.5 141v520h139v-517q0 -34 11.5 -52.5t33.5 -18.5t34 18.5t12 52.5v517h138v-520q0 -90 -48.5 -141t-135.5 -51t-135.5 51zM342 867q0 -70 -29.5 -103.5t-89.5 -33.5q-59 0 -89 32t-30 105l91 1q0 -62 28 -62q29 0 29 62z" />
    <glyph glyph-name="ubreve" unicode="&#x16d;" horiz-adv-x="424" 
d="M248 549h133v-549h-133v55q-17 -31 -42 -49t-55 -18q-56 0 -83 42t-27 131v388h133v-381q0 -56 29 -56q12 0 24.5 14.5t20.5 39.5v383zM319 732q0 -70 -29.5 -103.5t-89.5 -33.5q-59 0 -89 32t-30 105l91 1q0 -62 28 -62q29 0 29 62z" />
    <glyph glyph-name="Uring" unicode="&#x16e;" horiz-adv-x="446" 
d="M87.5 39q-48.5 51 -48.5 141v520h139v-517q0 -34 11.5 -52.5t33.5 -18.5t34 18.5t12 52.5v517h138v-520q0 -90 -48.5 -141t-135.5 -51t-135.5 51zM156.5 733q-27.5 27 -27.5 68t27.5 68.5t68.5 27.5t68 -27.5t27 -68.5t-27 -68t-68 -27t-68.5 27zM244 779.5q8 8.5 8 21.5
t-8 22.5t-19 9.5q-13 0 -21 -9t-8 -23q0 -13 8 -21.5t21 -8.5q11 0 19 8.5z" />
    <glyph glyph-name="uring" unicode="&#x16f;" horiz-adv-x="424" 
d="M248 549h133v-549h-133v55q-17 -31 -42 -49t-55 -18q-56 0 -83 42t-27 131v388h133v-381q0 -56 29 -56q12 0 24.5 14.5t20.5 39.5v383zM131.5 615q-27.5 27 -27.5 68t27.5 68.5t68.5 27.5t68 -27.5t27 -68.5t-27 -68t-68 -27t-68.5 27zM219 661.5q8 8.5 8 21.5t-8 22.5
t-19 9.5q-13 0 -21 -9t-8 -23q0 -13 8 -21.5t21 -8.5q11 0 19 8.5z" />
    <glyph glyph-name="Uhungarumlaut" unicode="&#x170;" horiz-adv-x="446" 
d="M87.5 39q-48.5 51 -48.5 141v520h139v-517q0 -34 11.5 -52.5t33.5 -18.5t34 18.5t12 52.5v517h138v-520q0 -90 -48.5 -141t-135.5 -51t-135.5 51zM263 850l-75 -106l-95 7l52 125zM417 850l-76 -106l-94 7l52 125z" />
    <glyph glyph-name="uhungarumlaut" unicode="&#x171;" horiz-adv-x="424" 
d="M248 549h133v-549h-133v55q-17 -31 -42 -49t-55 -18q-56 0 -83 42t-27 131v388h133v-381q0 -56 29 -56q12 0 24.5 14.5t20.5 39.5v383zM238 734l-70 -131l-80 7l40 142zM375 734l-71 -131l-80 7l40 142z" />
    <glyph glyph-name="Uogonek" unicode="&#x172;" horiz-adv-x="446" 
d="M407 700v-520q0 -86 -45 -137h1q-37 -40 -37 -75q0 -17 10 -25.5t26 -8.5q4 0 16 2l7 -83q-39 -10 -72 -10q-49 0 -76 23t-27 66q0 30 14 56h-1q-87 0 -135.5 51t-48.5 141v520h139v-517q0 -34 11.5 -52.5t33.5 -18.5t34 18.5t12 52.5v517h138z" />
    <glyph glyph-name="uogonek" unicode="&#x173;" horiz-adv-x="424" 
d="M403 -190q-39 -10 -72 -10q-49 0 -76 23t-27 66q0 31 16 60t41 51h-37v55q-17 -31 -42 -49t-55 -18q-56 0 -83 42t-27 131v388h133v-381q0 -56 29 -56q12 0 24.5 14.5t20.5 39.5v383h133v-549q-37 -40 -37 -75q0 -17 10 -25.5t26 -8.5q4 0 16 2z" />
    <glyph glyph-name="Wcircumflex" unicode="&#x174;" horiz-adv-x="629" 
d="M426 204l57 496h138l-110 -700h-153l-43 363l-45 -363h-151l-111 700h142l55 -496l58 496h104zM393 871l48 -122l-104 -7l-21 65l-21 -65l-105 7l49 122h154z" />
    <glyph glyph-name="wcircumflex" unicode="&#x175;" horiz-adv-x="582" 
d="M389 181l46 368h137l-103 -549h-133l-45 301l-45 -301h-132l-104 549h137l47 -368l52 368h91zM368 743l46 -134l-99 -7l-20 71l-19 -71l-100 7l46 134h146z" />
    <glyph glyph-name="Ycircumflex" unicode="&#x176;" horiz-adv-x="395" 
d="M249 700h143l-126 -504v-196h-138v196l-125 504h143l52 -318zM275 871l48 -122l-104 -7l-21 65l-21 -65l-105 7l49 122h154z" />
    <glyph glyph-name="ycircumflex" unicode="&#x177;" horiz-adv-x="409" 
d="M206 165l59 384h135l-119 -549l-36 -171h-135l32 157l-9 -1l-125 564h136l59 -384h3zM278 742l46 -134l-99 -7l-20 71l-19 -71l-100 7l46 134h146z" />
    <glyph glyph-name="Ydieresis" unicode="&#x178;" horiz-adv-x="395" 
d="M249 700h143l-126 -504v-196h-138v196l-125 504h143l52 -318zM177 741h-109v119h109v-119zM319 741h-109v119h109v-119z" />
    <glyph glyph-name="Zacute" unicode="&#x179;" horiz-adv-x="357" 
d="M337 0h-317v90l157 483h-152v127h309v-90l-156 -483h159v-127zM313 847l-89 -106l-98 7l67 125z" />
    <glyph glyph-name="zacute" unicode="&#x17a;" horiz-adv-x="344" 
d="M326 0h-305v84l143 347h-138v118h297v-83l-142 -347h145v-119zM296 734l-86 -131l-82 7l55 142z" />
    <glyph glyph-name="Zdotaccent" unicode="&#x17b;" horiz-adv-x="357" 
d="M337 0h-317v90l157 483h-152v127h309v-90l-156 -483h159v-127zM242 742h-138v119h138v-119z" />
    <glyph glyph-name="zdotaccent" unicode="&#x17c;" horiz-adv-x="344" 
d="M326 0h-305v84l143 347h-138v118h297v-83l-142 -347h145v-119zM240 606h-138v124h138v-124z" />
    <glyph glyph-name="Zcaron" unicode="&#x17d;" horiz-adv-x="357" 
d="M337 0h-317v90l157 483h-152v127h309v-90l-156 -483h159v-127zM178 809l22 66l103 -7l-48 -122h-153l-48 122l104 7z" />
    <glyph glyph-name="zcaron" unicode="&#x17e;" horiz-adv-x="344" 
d="M326 0h-305v84l143 347h-138v118h297v-83l-142 -347h145v-119zM177 669l20 72l99 -8l-46 -135h-146l-46 135l100 8z" />
    <glyph glyph-name="uni018F" unicode="&#x18f;" horiz-adv-x="468" 
d="M376.5 616.5q60.5 -95.5 60.5 -269.5q0 -173 -54.5 -266.5t-158.5 -93.5q-92 0 -143 87t-51 247q0 22 8 72h258q-3 91 -27.5 140t-69.5 49q-59 0 -113 -37l-25 126q30 19 70 30t80 11q105 0 165.5 -95.5zM274.5 154.5q15.5 42.5 20.5 133.5h-126q2 -85 15.5 -130.5
t43.5 -45.5q31 0 46.5 42.5z" />
    <glyph glyph-name="florin" unicode="&#x192;" horiz-adv-x="434" 
d="M301 579l-3 -30h67v-107h-76l-24 -267q-8 -88 -45.5 -137.5t-105.5 -49.5q-48 0 -90 22l32 118q14 -8 21.5 -10.5t17.5 -2.5q14 0 24.5 16t13.5 52l23 259h-61v107h71l3 34q8 90 45 139.5t104 49.5q52 0 92 -21l-33 -117q-10 6 -18.5 9.5t-17.5 3.5q-35 0 -40 -68z" />
    <glyph glyph-name="uni019D" unicode="&#x19d;" horiz-adv-x="476" 
d="M296 700h132v-700h-118l-130 373v-62q6 -42 6 -176v-139q0 -71 -36 -111.5t-111 -40.5q-38 0 -84 16l19 115q22 -11 43 -11q14 0 22.5 10.5t8.5 32.5v693h123l125 -360v360z" />
    <glyph glyph-name="Ohorn" unicode="&#x1a0;" horiz-adv-x="473" 
d="M446 794q6 -33 6 -60q0 -45 -15.5 -74.5t-43.5 -39.5q50 -89 50 -270q0 -362 -207 -362q-206 0 -206 362t206 362q47 0 81 -17q10 1 14 8.5t4 29.5q0 19 -3 55zM270.5 144.5q12.5 21.5 18 70.5t5.5 135t-5 134.5t-17.5 70.5t-35.5 22q-21 0 -33.5 -21.5t-18 -71
t-5.5 -134.5t5 -133.5t17.5 -71t34.5 -22.5t34.5 21.5z" />
    <glyph glyph-name="ohorn" unicode="&#x1a1;" horiz-adv-x="414" 
d="M416 640q6 -33 6 -60q0 -47 -17.5 -77.5t-47.5 -38.5q34 -71 34 -187q0 -140 -47 -214.5t-137 -74.5q-88 0 -135.5 73.5t-47.5 214.5q0 138 46.5 211.5t137.5 73.5q44 0 81 -20q9 2 12.5 10t3.5 29q0 18 -3 54zM256 276q0 161 -49 161t-49 -160q0 -164 50 -164
q48 0 48 163z" />
    <glyph glyph-name="Uhorn" unicode="&#x1af;" horiz-adv-x="446" 
d="M467 799q6 -33 6 -60q0 -48 -17.5 -78t-48.5 -38v-443q0 -90 -48.5 -141t-135.5 -51t-135.5 51t-48.5 141v520h139v-517q0 -34 11.5 -52.5t33.5 -18.5t34 18.5t12 52.5v517h64q13 0 18 7.5t5 31.5q0 18 -3 54z" />
    <glyph glyph-name="uhorn" unicode="&#x1b0;" horiz-adv-x="424" 
d="M450 649q6 -33 6 -61q0 -51 -20 -81.5t-55 -35.5v-471h-133v55q-17 -31 -42 -49t-55 -18q-56 0 -83 42t-27 131v388h133v-381q0 -56 29 -56q12 0 24.5 14.5t20.5 39.5v383h68v1q13 0 18 7.5t5 31.5q0 18 -3 54z" />
    <glyph glyph-name="uni01CD" unicode="&#x1cd;" horiz-adv-x="456" 
d="M449 0h-141l-19 122h-123l-19 -122h-140l132 700h177zM227 507l-43 -272h87l-43 272h-1zM227 809l22 66l103 -7l-48 -122h-153l-48 122l104 7z" />
    <glyph glyph-name="uni01CE" unicode="&#x1ce;" horiz-adv-x="396" 
d="M314.5 509.5q41.5 -51.5 41.5 -152.5v-357h-132v61q-30 -73 -91 -73q-53 0 -84.5 43.5t-31.5 133.5q0 79 35.5 123.5t108.5 44.5q25 0 63 -4v30q0 46 -15 65.5t-47 19.5q-20 0 -46 -7t-45 -17l-15 114q56 27 124 27q93 0 134.5 -51.5zM212 135.5q12 31.5 12 99.5v10
q-22 2 -35 2q-21 0 -33 -17.5t-12 -54.5t10 -54t26 -17q20 0 32 31.5zM192 671l20 72l99 -8l-46 -135h-146l-46 135l100 8z" />
    <glyph glyph-name="uni01CF" unicode="&#x1cf;" horiz-adv-x="234" 
d="M186 0h-138v700h138v-700zM115 809l22 66l103 -7l-48 -122h-153l-48 122l104 7z" />
    <glyph glyph-name="uni01D0" unicode="&#x1d0;" horiz-adv-x="219" 
d="M176 0h-133v549h133v-549zM109 669l20 72l99 -8l-46 -135h-146l-46 135l100 8z" />
    <glyph glyph-name="uni01D1" unicode="&#x1d1;" horiz-adv-x="473" 
d="M30 350q0 362 206 362q102 0 154.5 -88t52.5 -274q0 -362 -207 -362q-206 0 -206 362zM270.5 144.5q12.5 21.5 18 70.5t5.5 135t-5 134.5t-17.5 70.5t-35.5 22q-21 0 -33.5 -21.5t-18 -71t-5.5 -134.5t5 -133.5t17.5 -71t34.5 -22.5t34.5 21.5zM235 809l22 66l103 -7
l-48 -122h-153l-48 122l104 7z" />
    <glyph glyph-name="uni01D2" unicode="&#x1d2;" horiz-adv-x="414" 
d="M71.5 61.5q-47.5 73.5 -47.5 214.5q0 138 46.5 211.5t137.5 73.5q88 0 135.5 -72.5t47.5 -211.5q0 -140 -47 -214.5t-137 -74.5q-88 0 -135.5 73.5zM256 276q0 161 -49 161t-49 -160q0 -164 50 -164q48 0 48 163zM208 669l20 72l99 -8l-46 -135h-146l-46 135l100 8z" />
    <glyph glyph-name="uni01D3" unicode="&#x1d3;" horiz-adv-x="446" 
d="M87.5 39q-48.5 51 -48.5 141v520h139v-517q0 -34 11.5 -52.5t33.5 -18.5t34 18.5t12 52.5v517h138v-520q0 -90 -48.5 -141t-135.5 -51t-135.5 51zM223 809l22 66l103 -7l-48 -122h-153l-48 122l104 7z" />
    <glyph glyph-name="uni01D4" unicode="&#x1d4;" horiz-adv-x="424" 
d="M248 549h133v-549h-133v55q-17 -31 -42 -49t-55 -18q-56 0 -83 42t-27 131v388h133v-381q0 -56 29 -56q12 0 24.5 14.5t20.5 39.5v383zM200 669l20 72l99 -8l-46 -135h-146l-46 135l100 8z" />
    <glyph glyph-name="uni01D5" unicode="&#x1d5;" horiz-adv-x="446" 
d="M87.5 39q-48.5 51 -48.5 141v520h139v-517q0 -34 11.5 -52.5t33.5 -18.5t34 18.5t12 52.5v517h138v-520q0 -90 -48.5 -141t-135.5 -51t-135.5 51zM204 741h-109v119h109v-119zM346 741h-109v119h109v-119zM346 898h-240v84h240v-84z" />
    <glyph glyph-name="uni01D6" unicode="&#x1d6;" horiz-adv-x="424" 
d="M248 549h133v-549h-133v55q-17 -31 -42 -49t-55 -18q-56 0 -83 42t-27 131v388h133v-381q0 -56 29 -56q12 0 24.5 14.5t20.5 39.5v383zM178 605h-95v124h95v-124zM316 605h-94v124h94v-124zM320 773h-240v84h240v-84z" />
    <glyph glyph-name="uni01D7" unicode="&#x1d7;" horiz-adv-x="446" 
d="M87.5 39q-48.5 51 -48.5 141v520h139v-517q0 -34 11.5 -52.5t33.5 -18.5t34 18.5t12 52.5v517h138v-520q0 -90 -48.5 -141t-135.5 -51t-135.5 51zM204 741h-109v119h109v-119zM346 741h-109v119h109v-119zM360 993l-89 -106l-98 7l67 125z" />
    <glyph glyph-name="uni01D8" unicode="&#x1d8;" horiz-adv-x="424" 
d="M248 549h133v-549h-133v55q-17 -31 -42 -49t-55 -18q-56 0 -83 42t-27 131v388h133v-381q0 -56 29 -56q12 0 24.5 14.5t20.5 39.5v383zM178 605h-95v124h95v-124zM316 605h-94v124h94v-124zM318 893l-86 -131l-82 7l55 142z" />
    <glyph glyph-name="uni01D9" unicode="&#x1d9;" horiz-adv-x="446" 
d="M87.5 39q-48.5 51 -48.5 141v520h139v-517q0 -34 11.5 -52.5t33.5 -18.5t34 18.5t12 52.5v517h138v-520q0 -90 -48.5 -141t-135.5 -51t-135.5 51zM204 741h-109v119h109v-119zM346 741h-109v119h109v-119zM224 955l22 66l103 -7l-48 -122h-153l-48 122l104 7z" />
    <glyph glyph-name="uni01DA" unicode="&#x1da;" horiz-adv-x="424" 
d="M248 549h133v-549h-133v55q-17 -31 -42 -49t-55 -18q-56 0 -83 42t-27 131v388h133v-381q0 -56 29 -56q12 0 24.5 14.5t20.5 39.5v383zM178 605h-95v124h95v-124zM316 605h-94v124h94v-124zM200 828l20 72l99 -8l-46 -135h-146l-46 135l100 8z" />
    <glyph glyph-name="uni01DB" unicode="&#x1db;" horiz-adv-x="446" 
d="M87.5 39q-48.5 51 -48.5 141v520h139v-517q0 -34 11.5 -52.5t33.5 -18.5t34 18.5t12 52.5v517h138v-520q0 -90 -48.5 -141t-135.5 -51t-135.5 51zM204 741h-109v119h109v-119zM346 741h-109v119h109v-119zM279 893l-98 -6l-89 105l120 27z" />
    <glyph glyph-name="Gcaron" unicode="&#x1e6;" horiz-adv-x="439" 
d="M247 382h163v-332q-40 -31 -76.5 -46.5t-90.5 -15.5q-213 0 -213 361q0 182 59 272.5t171 90.5q60 0 117 -23l-21 -133q-18 9 -43 15.5t-41 6.5q-36 0 -56.5 -22.5t-29 -71.5t-8.5 -135q0 -118 16 -174.5t54 -56.5q20 0 35 10v137h-36v117zM256 809l22 66l103 -7
l-48 -122h-153l-48 122l104 7z" />
    <glyph glyph-name="gcaron" unicode="&#x1e7;" horiz-adv-x="385" 
d="M224 141q75 0 117 -37.5t42 -108.5q0 -80 -52 -128.5t-146 -48.5q-75 0 -116.5 36t-41.5 105q0 53 47 97q-44 23 -44 88q0 26 12.5 50.5t32.5 42.5q-45 50 -45 141q0 84 43.5 133.5t121.5 49.5q46 0 74 -17l82 39l33 -91l-48 -22q25 -41 25 -92q0 -87 -42.5 -137.5
t-122.5 -50.5q-18 0 -36 3q-11 -16 -11 -28q0 -24 35 -24h40zM169 437.5q-9 -20.5 -9 -58.5q0 -40 9 -62.5t26 -22.5q18 0 27 22t9 62q0 37 -9 58.5t-27 21.5q-17 0 -26 -20.5zM233.5 -56.5q13.5 17.5 13.5 44.5q0 54 -51 54h-28q-19 -27 -19 -59q0 -31 12 -44t35 -13
q24 0 37.5 17.5zM193 673l20 72l99 -8l-46 -135h-146l-46 135l100 8z" />
    <glyph glyph-name="uni01EA" unicode="&#x1ea;" horiz-adv-x="473" 
d="M336 -58.5q10 -8.5 26 -8.5q4 0 16 2l7 -83q-39 -10 -72 -10q-49 0 -76 23t-27 66q0 29 15 57q-195 9 -195 362q0 362 206 362q102 0 154.5 -88t52.5 -274q0 -242 -92 -322q-25 -32 -25 -61q0 -17 10 -25.5zM184 216.5q5 -48.5 17.5 -71t34.5 -22.5t34.5 21.5t18 70.5
t5.5 135t-5 134.5t-17.5 70.5t-35.5 22q-21 0 -33.5 -21.5t-18 -71t-5.5 -134.5t5 -133.5z" />
    <glyph glyph-name="uni01EB" unicode="&#x1eb;" horiz-adv-x="414" 
d="M299 -60.5q10 -8.5 26 -8.5q4 0 16 2l7 -83q-39 -10 -72 -10q-49 0 -76 23t-27 66q0 31 16 60q-80 8 -122.5 80.5t-42.5 206.5q0 138 46.5 211.5t137.5 73.5q88 0 135.5 -72.5t47.5 -211.5q0 -180 -76 -250q-26 -34 -26 -62q0 -17 10 -25.5zM208 113q48 0 48 163
q0 161 -49 161t-49 -160q0 -164 50 -164z" />
    <glyph glyph-name="Aringacute" unicode="&#x1fa;" horiz-adv-x="456" 
d="M449 0h-141l-19 122h-123l-19 -122h-140l132 700h177zM227 507l-43 -272h87l-43 272h-1zM160.5 733q-27.5 27 -27.5 68t27.5 68.5t68.5 27.5t68 -27.5t27 -68.5t-27 -68t-68 -27t-68.5 27zM248 779.5q8 8.5 8 21.5t-8 22.5t-19 9.5q-13 0 -21 -9t-8 -23q0 -13 8 -21.5
t21 -8.5q11 0 19 8.5zM366 1037l-89 -106l-98 7l67 125z" />
    <glyph glyph-name="aringacute" unicode="&#x1fb;" horiz-adv-x="396" 
d="M314.5 509.5q41.5 -51.5 41.5 -152.5v-357h-132v61q-30 -73 -91 -73q-53 0 -84.5 43.5t-31.5 133.5q0 79 35.5 123.5t108.5 44.5q25 0 63 -4v30q0 46 -15 65.5t-47 19.5q-20 0 -46 -7t-45 -17l-15 114q56 27 124 27q93 0 134.5 -51.5zM212 135.5q12 31.5 12 99.5v10
q-22 2 -35 2q-21 0 -33 -17.5t-12 -54.5t10 -54t26 -17q20 0 32 31.5zM123.5 617q-27.5 27 -27.5 68t27.5 68.5t68.5 27.5t68 -27.5t27 -68.5t-27 -68t-68 -27t-68.5 27zM211 663.5q8 8.5 8 21.5t-8 22.5t-19 9.5q-13 0 -21 -9t-8 -23q0 -13 8 -21.5t21 -8.5q11 0 19 8.5z
M310 954l-86 -131l-82 7l55 142z" />
    <glyph glyph-name="AEacute" unicode="&#x1fc;" horiz-adv-x="599" 
d="M405 296v-171h169v-125h-307v135h-91l-27 -135h-142l141 700h422v-125h-165v-158h140v-121h-140zM263 572l-66 -327h70v327h-4zM502 847l-89 -106l-98 7l67 125z" />
    <glyph glyph-name="aeacute" unicode="&#x1fd;" horiz-adv-x="594" 
d="M360 231q5 -64 20.5 -94t46.5 -30q53 0 93 26l21 -112q-24 -15 -59.5 -23.5t-69.5 -8.5q-91 0 -138 74q-45 -75 -128 -75q-61 0 -95 47t-34 127t35.5 125.5t104.5 45.5q35 0 65 -6v13q0 53 -15 78.5t-47 25.5q-21 0 -44.5 -6.5t-42.5 -18.5l-24 115q59 27 129 27
q77 0 114 -50q44 49 116 49q77 0 120 -63t43 -170q0 -42 -14 -96h-197zM445 322q2 59 -8.5 90t-32.5 31q-21 0 -31.5 -29.5t-12.5 -91.5h85zM212 135q15 28 16 89q-1 5 -1 15q-14 5 -39 5q-20 0 -31 -16t-11 -53q0 -31 8.5 -49.5t23.5 -18.5q19 0 34 28zM415 734l-86 -131
l-82 7l55 142z" />
    <glyph glyph-name="oslashacute" unicode="&#x1ff;" horiz-adv-x="414" 
d="M395 530l-37 -66q33 -72 33 -187q0 -140 -47 -214.5t-137 -74.5q-59 0 -100 33l-20 -36l-69 38l38 67q-32 70 -32 186q0 138 46.5 211.5t137.5 73.5q56 0 97 -30l21 37zM158 271l80 141q-12 25 -31 25q-49 0 -49 -160v-6zM256 284l-81 -143q12 -28 33 -28q48 0 48 163v8z
M326 734l-86 -131l-82 7l55 142z" />
    <glyph glyph-name="uni0218" unicode="&#x218;" horiz-adv-x="358" 
d="M19 17l19 129q52 -30 92 -30q31 0 47.5 17.5t16.5 52.5q0 25 -16.5 51t-51.5 68q-49 58 -77 107t-28 107q0 91 47 142t129 51q58 0 128 -27l-19 -129q-47 25 -81 25q-27 0 -42.5 -16.5t-15.5 -47.5q0 -27 16.5 -53t52.5 -69q49 -57 76 -106t27 -112q0 -86 -49.5 -138
t-131.5 -52q-70 0 -139 30zM116 -187q28 12 40 28.5t10 39.5h-51v82h117q8 -29 8 -60q0 -52 -27 -84t-76 -50z" />
    <glyph glyph-name="uni0219" unicode="&#x219;" horiz-adv-x="322" 
d="M17 10l18 121q19 -10 44.5 -16.5t46.5 -6.5q19 0 30 11.5t11 32.5q0 20 -15 39t-48 47q-39 35 -61 71t-22 90q0 78 44 120t113 42q50 0 108 -21l-19 -120q-43 22 -74 22q-19 0 -29.5 -11.5t-10.5 -31.5q0 -23 14 -41t43 -44q45 -40 68 -79.5t23 -89.5q0 -72 -42.5 -114
t-116.5 -42q-57 0 -125 21zM103 -187q28 12 40 28.5t10 39.5h-51v82h117q8 -29 8 -60q0 -52 -27 -84t-76 -50z" />
    <glyph glyph-name="uni021A" unicode="&#x21a;" horiz-adv-x="361" 
d="M10 700h341v-127h-102v-573h-138v573h-101v127zM121 -187q28 12 40 28.5t10 39.5h-51v82h117q8 -29 8 -60q0 -52 -27 -84t-76 -50z" />
    <glyph glyph-name="uni021B" unicode="&#x21b;" horiz-adv-x="308" 
d="M92 27.5q-33 39.5 -33 121.5v284h-41v65l119 169h55v-118h94v-116h-94v-274q0 -24 7.5 -35.5t25.5 -11.5q20 0 47 10l20 -116q-57 -18 -102 -18q-65 0 -98 39.5zM87 -189q28 12 40 28.5t10 39.5h-51v82h117q8 -29 8 -60q0 -52 -27 -84t-76 -50z" />
    <glyph glyph-name="uni0232" unicode="&#x232;" horiz-adv-x="395" 
d="M249 700h143l-126 -504v-196h-138v196l-125 504h143l52 -318zM318 752h-240v84h240v-84z" />
    <glyph glyph-name="uni0233" unicode="&#x233;" horiz-adv-x="409" 
d="M206 165l59 384h135l-119 -549l-36 -171h-135l32 157l-9 -1l-125 564h136l59 -384h3zM325 613h-240v84h240v-84z" />
    <glyph glyph-name="uni0237" unicode="&#x237;" horiz-adv-x="222" 
d="M-3 -65q6 1 21 1t21.5 14t6.5 50v549h133v-549q0 -93 -33 -135.5t-103 -42.5q-28 0 -46 6v107z" />
    <glyph glyph-name="uni0259" unicode="&#x259;" horiz-adv-x="392" 
d="M320.5 486q47.5 -74 47.5 -213q0 -133 -46 -208.5t-136 -75.5q-77 0 -120 63t-43 170q0 42 14 96h197q-5 64 -20.5 94t-46.5 30q-53 0 -93 -26l-21 112q24 15 59.5 23.5t69.5 8.5q91 0 138.5 -74zM221.5 135.5q10.5 29.5 12.5 91.5h-85q-2 -59 8.5 -90t32.5 -31
q21 0 31.5 29.5z" />
    <glyph glyph-name="uni0272" unicode="&#x272;" horiz-adv-x="424" 
d="M356 519q27 -42 27 -131v-388h-133v381q0 56 -29 56q-12 0 -24.5 -14.5t-20.5 -39.5v-387q0 -72 -34.5 -112t-106.5 -40q-37 0 -81 16l19 115q21 -11 41 -11q13 0 21 10.5t8 32.5v542h133v-55q17 31 42 49t55 18q56 0 83 -42z" />
    <glyph glyph-name="uni02B0" unicode="&#x2b0;" horiz-adv-x="246" 
d="M211.5 715q19.5 -30 19.5 -84v-184h-87v165q0 23 -3 33t-12 10q-21 0 -21 -59v-149h-88v389h88v-116q20 25 52 25t51.5 -30z" />
    <glyph glyph-name="circumflex" unicode="&#x2c6;" horiz-adv-x="299" 
d="M222 743l46 -134l-99 -7l-20 71l-19 -71l-100 7l46 134h146z" />
    <glyph glyph-name="caron" unicode="&#x2c7;" horiz-adv-x="299" 
d="M149 669l20 72l99 -8l-46 -135h-146l-46 135l100 8z" />
    <glyph glyph-name="breve" unicode="&#x2d8;" horiz-adv-x="298" 
d="M268 732q0 -70 -29.5 -103.5t-89.5 -33.5q-59 0 -89 32t-30 105l91 1q0 -62 28 -62q29 0 29 62z" />
    <glyph glyph-name="dotaccent" unicode="&#x2d9;" horiz-adv-x="199" 
d="M168 606h-138v124h138v-124z" />
    <glyph glyph-name="ring" unicode="&#x2da;" horiz-adv-x="251" 
d="M57.5 615q-27.5 27 -27.5 68t27.5 68.5t68.5 27.5t68 -27.5t27 -68.5t-27 -68t-68 -27t-68.5 27zM145 661.5q8 8.5 8 21.5t-8 22.5t-19 9.5q-13 0 -21 -9t-8 -23q0 -13 8 -21.5t21 -8.5q11 0 19 8.5z" />
    <glyph glyph-name="ogonek" unicode="&#x2db;" horiz-adv-x="308" 
d="M185 0q-37 -40 -37 -75q0 -17 10 -25.5t26 -8.5q4 0 16 2l7 -83q-39 -10 -72 -10q-49 0 -76 23t-27 66q0 39 24.5 73.5t56.5 55.5z" />
    <glyph glyph-name="tilde" unicode="&#x2dc;" horiz-adv-x="269" 
d="M31 619q-1 8 -1 22q0 90 56 90q23 0 51 -17q14 -9 21 -9q16 0 15 27l65 -10q3 -55 -10.5 -83.5t-42.5 -28.5q-15 0 -26.5 4.5t-24.5 12.5q-14 9 -23 9q-8 0 -11 -7.5t-2 -20.5z" />
    <glyph glyph-name="hungarumlaut" unicode="&#x2dd;" horiz-adv-x="347" 
d="M180 734l-70 -131l-80 7l40 142zM317 734l-71 -131l-80 7l40 142z" />
    <glyph glyph-name="uni02E1" unicode="&#x2e1;" horiz-adv-x="126" 
d="M106 447h-86v401h86v-401z" />
    <glyph glyph-name="uni02E2" unicode="&#x2e2;" horiz-adv-x="192" 
d="M15 453l10 70q14 -7 22.5 -9.5t18.5 -2.5q7 0 12.5 6.5t5.5 15.5q0 16 -25 38q-20 18 -31 35.5t-11 46.5q0 44 26.5 69.5t64.5 25.5q14 0 32.5 -3t28.5 -7l-10 -73q-21 9 -35 9q-8 0 -13 -5.5t-5 -13.5q0 -10 5 -17t18 -20q25 -25 36.5 -43t11.5 -48q0 -38 -25.5 -62
t-65.5 -24q-38 0 -71 12z" />
    <glyph glyph-name="gravecomb" unicode="&#x300;" 
d="M-30 610l-82 -7l-86 131l113 18z" />
    <glyph glyph-name="acutecomb" unicode="&#x301;" 
d="M-30 734l-86 -131l-82 7l55 142z" />
    <glyph glyph-name="uni0302" unicode="&#x302;" 
d="M-77 743l46 -134l-99 -7l-20 71l-19 -71l-100 7l46 134h146z" />
    <glyph glyph-name="tildecomb" unicode="&#x303;" 
d="M-238 619q-1 8 -1 22q0 90 56 90q23 0 51 -17q14 -9 21 -9q16 0 15 27l65 -10q3 -55 -10.5 -83.5t-42.5 -28.5q-15 0 -26.5 4.5t-24.5 12.5q-14 9 -23 9q-8 0 -11 -7.5t-2 -20.5z" />
    <glyph glyph-name="uni0304" unicode="&#x304;" 
d="M-24 614h-240v84h240v-84z" />
    <glyph glyph-name="uni0306" unicode="&#x306;" 
d="M-30 732q0 -70 -29.5 -103.5t-89.5 -33.5q-59 0 -89 32t-30 105l91 1q0 -62 28 -62q29 0 29 62z" />
    <glyph glyph-name="uni0307" unicode="&#x307;" 
d="M-37 606h-138v124h138v-124z" />
    <glyph glyph-name="uni0308" unicode="&#x308;" 
d="M-168 605h-95v124h95v-124zM-30 605h-94v124h94v-124z" />
    <glyph glyph-name="hookabovecomb" unicode="&#x309;" 
d="M-149 630q16 8 22.5 16t6.5 19q0 10 -6 15.5t-15 5.5q-10 0 -17 -5l-13 63q32 19 67 19q33 0 54.5 -19.5t21.5 -56.5q0 -59 -70 -103z" />
    <glyph glyph-name="uni030A" unicode="&#x30a;" 
d="M-193.5 615q-27.5 27 -27.5 68t27.5 68.5t68.5 27.5t68 -27.5t27 -68.5t-27 -68t-68 -27t-68.5 27zM-106 661.5q8 8.5 8 21.5t-8 22.5t-19 9.5q-13 0 -21 -9t-8 -23q0 -13 8 -21.5t21 -8.5q11 0 19 8.5z" />
    <glyph glyph-name="uni030B" unicode="&#x30b;" 
d="M-167 734l-70 -131l-80 7l40 142zM-30 734l-71 -131l-80 7l40 142z" />
    <glyph glyph-name="uni030C" unicode="&#x30c;" 
d="M-150 669l20 72l99 -8l-46 -135h-146l-46 135l100 8z" />
    <glyph glyph-name="uni0312" unicode="&#x312;" 
d="M-33 742q-28 -12 -40 -28.5t-10 -39.5h52v-82h-118q-8 29 -8 60q0 52 27 84t76 50z" />
    <glyph glyph-name="uni031B" unicode="&#x31b;" 
d="M-198 598q13 0 18 7.5t5 31.5q0 18 -3 54l114 6q6 -33 6 -60q0 -56 -24 -87.5t-64 -31.5q-35 0 -73 22z" />
    <glyph glyph-name="dotbelowcomb" unicode="&#x323;" 
d="M-154 -170v124h127v-124h-127z" />
    <glyph glyph-name="uni0324" unicode="&#x324;" 
d="M-168 -190h-95v124h95v-124zM-30 -190h-94v124h94v-124z" />
    <glyph glyph-name="uni0326" unicode="&#x326;" 
d="M-177 -187q28 12 40 28.5t10 39.5h-51v82h117q8 -29 8 -60q0 -52 -27 -84t-76 -50z" />
    <glyph glyph-name="uni0327" unicode="&#x327;" 
d="M-123 -35q34 -6 53 -24t19 -44q0 -35 -32.5 -55t-90.5 -20q-40 0 -68 6l13 64q20 -6 41 -6q33 0 33 20q0 28 -56 25l21 76h79z" />
    <glyph glyph-name="uni0328" unicode="&#x328;" 
d="M-48 0q-37 -40 -37 -75q0 -17 10 -25.5t26 -8.5q4 0 16 2l7 -83q-39 -10 -72 -10q-49 0 -76 23t-27 66q0 39 24.5 73.5t56.5 55.5z" />
    <glyph glyph-name="uni032E" unicode="&#x32e;" 
d="M-28 -34q0 -55 -25.5 -81t-77.5 -26q-51 0 -77 25t-26 82l78 1q0 -49 25 -49t25 49z" />
    <glyph glyph-name="uni0331" unicode="&#x331;" 
d="M-24 -140h-240v84h240v-84z" />
    <glyph glyph-name="uni0335" unicode="&#x335;" 
d="M-267 294v73h233v-73h-233z" />
    <glyph glyph-name="uni0336" unicode="&#x336;" 
d="M-402 398v83h383v-83h-383z" />
    <glyph glyph-name="uni0337" unicode="&#x337;" 
d="M-306 266l-32 64l225 105l31 -65z" />
    <glyph glyph-name="uni0338" unicode="&#x338;" 
d="M-455 -16l-69 38l308 545l69 -38z" />
    <glyph glyph-name="tonos" unicode="&#x384;" horiz-adv-x="260" 
d="M226 754l-46 -149h-81l11 149h116z" />
    <glyph glyph-name="dieresistonos" unicode="&#x385;" horiz-adv-x="451" 
d="M288 792l-42 -150h-60l10 150h92zM152 595h-79v111h79v-111zM375 595h-79v111h79v-111z" />
    <glyph glyph-name="Alphatonos" unicode="&#x386;" horiz-adv-x="456" 
d="M449 0h-141l-20 128h-121l-20 -128h-140l133 700h175zM227 507l-43 -272h86zM122 700l-46 -149h-81l11 149h116z" />
    <glyph glyph-name="Epsilontonos" unicode="&#x388;" horiz-adv-x="380" 
d="M186 296v-171h169v-125h-307v700h303v-125h-165v-158h140v-121h-140zM34 700l-46 -149h-81l11 149h116z" />
    <glyph glyph-name="Etatonos" unicode="&#x389;" horiz-adv-x="488" 
d="M296 412v288h145v-700h-145v286h-105v-286h-143v700h143v-288h105zM20 700l-46 -149h-81l11 149h116z" />
    <glyph glyph-name="Iotatonos" unicode="&#x38a;" horiz-adv-x="234" 
d="M186 0h-138v700h138v-700zM20 700l-46 -149h-81l11 149h116z" />
    <glyph glyph-name="Omicrontonos" unicode="&#x38c;" horiz-adv-x="473" 
d="M30 350q0 362 206 362q102 0 154.5 -88t52.5 -274q0 -362 -207 -362q-206 0 -206 362zM270.5 144.5q12.5 21.5 18 70.5t5.5 135t-5 134.5t-17.5 70.5t-35.5 22q-21 0 -33.5 -21.5t-18 -71t-5.5 -134.5t5 -133.5t17.5 -71t34.5 -22.5t34.5 21.5zM72 700l-46 -149h-81
l11 149h116z" />
    <glyph glyph-name="Upsilontonos" unicode="&#x38e;" horiz-adv-x="395" 
d="M249 700h143l-126 -504v-196h-138v196l-125 504h143l52 -318zM-2 700l-46 -149h-81l11 149h116z" />
    <glyph glyph-name="Omegatonos" unicode="&#x38f;" horiz-adv-x="461" 
d="M407 295.5q-24 -67.5 -69 -155.5l-10 -21l94 11v-130h-183v108q17 71 14 60q21 91 30 147.5t9 119.5q0 69 -15.5 105.5t-46.5 36.5q-29 0 -45 -36.5t-16 -105.5q0 -78 12 -147t41 -180v-108h-183v130l95 -11l-15 30q-44 88 -66.5 153t-22.5 142q0 129 51 198.5t150 69.5
q96 0 148 -69t52 -199q0 -81 -24 -148.5zM34 700l-46 -149h-81l11 149h116z" />
    <glyph glyph-name="iotadieresistonos" unicode="&#x390;" horiz-adv-x="222" 
d="M74 26q-33 38 -33 118v405h133v-401q0 -35 22 -35h9l9 -121q-17 -4 -36 -4q-71 0 -104 38zM173 792l-42 -150h-60l10 150h92zM37 595h-79v111h79v-111zM260 595h-79v111h79v-111z" />
    <glyph glyph-name="Alpha" unicode="&#x391;" horiz-adv-x="456" 
d="M449 0h-141l-20 128h-121l-20 -128h-140l133 700h175zM227 507l-43 -272h86z" />
    <glyph glyph-name="Beta" unicode="&#x392;" horiz-adv-x="449" 
d="M400 302q30 -43 30 -107q0 -91 -54.5 -143t-157.5 -52h-170v700h159q97 0 151 -47t54 -136q0 -54 -24.5 -95t-68.5 -60q51 -17 81 -60zM183 580v-172h13q80 0 80 85q0 44 -19 65.5t-61 21.5h-13zM207 120q86 0 86 89t-87 89h-23v-178h24z" />
    <glyph glyph-name="Gamma" unicode="&#x393;" horiz-adv-x="348" 
d="M48 0v700h290v-125h-146v-575h-144z" />
    <glyph glyph-name="uni0394" unicode="&#x394;" horiz-adv-x="425" 
d="M123 701h179l116 -701h-411zM211 506l-51 -390h104l-51 390h-2z" />
    <glyph glyph-name="Epsilon" unicode="&#x395;" horiz-adv-x="380" 
d="M186 296v-171h169v-125h-307v700h303v-125h-165v-158h140v-121h-140z" />
    <glyph glyph-name="Zeta" unicode="&#x396;" horiz-adv-x="357" 
d="M337 0h-317v90l157 483h-152v127h309v-90l-156 -483h159v-127z" />
    <glyph glyph-name="Eta" unicode="&#x397;" horiz-adv-x="488" 
d="M296 412v288h145v-700h-145v286h-105v-286h-143v700h143v-288h105z" />
    <glyph glyph-name="Theta" unicode="&#x398;" horiz-adv-x="473" 
d="M30 350q0 362 206 362q102 0 154.5 -88t52.5 -274q0 -362 -207 -362q-206 0 -206 362zM270.5 144.5q12.5 21.5 18 70.5t5.5 135t-5 134.5t-17.5 70.5t-35.5 22q-21 0 -33.5 -21.5t-18 -71t-5.5 -134.5t5 -133.5t17.5 -71t34.5 -22.5t34.5 21.5zM199 313v73l73 1v-74h-73z
" />
    <glyph glyph-name="Iota" unicode="&#x399;" horiz-adv-x="234" 
d="M186 0h-138v700h138v-700z" />
    <glyph glyph-name="Kappa" unicode="&#x39a;" horiz-adv-x="475" 
d="M466 0h-148l-92 257l-40 -63v-194h-138v700h138v-282l110 282h154l-141 -297z" />
    <glyph glyph-name="Lambda" unicode="&#x39b;" horiz-adv-x="427" 
d="M8 -1l123 701h166l122 -701h-141l-63 497h-2l-60 -497h-145z" />
    <glyph glyph-name="Mu" unicode="&#x39c;" horiz-adv-x="555" 
d="M362 700h132l25 -700h-128l-13 348l-77 -347h-47l-77 347l-13 -348h-128l24 700h130l87 -362z" />
    <glyph glyph-name="Nu" unicode="&#x39d;" horiz-adv-x="476" 
d="M180 0h-132v700h123l125 -360v360h132v-700h-118l-130 373v-373z" />
    <glyph glyph-name="Xi" unicode="&#x39e;" horiz-adv-x="370" 
d="M344 575l-318 1v124l318 -1v-124zM318 297l-265 1v118h265v-119zM345 -1l-320 1v125l320 -1v-125z" />
    <glyph glyph-name="Omicron" unicode="&#x39f;" horiz-adv-x="473" 
d="M30 350q0 362 206 362q102 0 154.5 -88t52.5 -274q0 -362 -207 -362q-206 0 -206 362zM270.5 144.5q12.5 21.5 18 70.5t5.5 135t-5 134.5t-17.5 70.5t-35.5 22q-21 0 -33.5 -21.5t-18 -71t-5.5 -134.5t5 -133.5t17.5 -71t34.5 -22.5t34.5 21.5z" />
    <glyph glyph-name="Pi" unicode="&#x3a0;" horiz-adv-x="474" 
d="M426 700v-700h-138v573h-102v-573h-138v700h378z" />
    <glyph glyph-name="Rho" unicode="&#x3a1;" horiz-adv-x="434" 
d="M360 636q56 -64 56 -183q0 -116 -53.5 -183t-154.5 -67h-22v-203h-138v700h159q97 0 153 -64zM204 325q33 0 53 33.5t20 94.5q0 57 -19.5 91t-53.5 34h-18v-253h18z" />
    <glyph glyph-name="Sigma" unicode="&#x3a3;" horiz-adv-x="359" 
d="M334 0h-308v106l115 248l-116 240v106h306v-124h-175l107 -222l-107 -230h178v-124z" />
    <glyph glyph-name="Tau" unicode="&#x3a4;" horiz-adv-x="361" 
d="M10 700h341v-127h-102v-573h-138v573h-101v127z" />
    <glyph glyph-name="Upsilon" unicode="&#x3a5;" horiz-adv-x="395" 
d="M249 700h143l-126 -504v-196h-138v196l-125 504h143l52 -318z" />
    <glyph glyph-name="Phi" unicode="&#x3a6;" horiz-adv-x="590" 
d="M507.5 150.5q-52.5 -76.5 -143.5 -81.5v-69h-138v69q-90 5 -143 79.5t-53 201.5q0 122 52 199.5t144 81.5v69h138v-69q89 -5 142.5 -78.5t53.5 -202.5q0 -123 -52.5 -199.5zM364 185q25 4 40 46.5t15 118.5q0 74 -14.5 118t-40.5 48v-331zM186 233q14 -44 40 -48v331
q-26 -5 -40 -47.5t-14 -118.5q0 -73 14 -117z" />
    <glyph glyph-name="Chi" unicode="&#x3a7;" horiz-adv-x="436" 
d="M311 356l116 -356h-146l-66 253l-60 -253h-146l110 354l-103 347h145l54 -232l54 232h145z" />
    <glyph glyph-name="Psi" unicode="&#x3a8;" horiz-adv-x="539" 
d="M371 700h129v-330q0 -75 -42 -122t-118 -52v-196h-141v196q-75 3 -117.5 49t-42.5 125v330h129v-330q0 -21 8 -34.5t23 -14.5v379h141v-379q15 1 23 14t8 34v331z" />
    <glyph glyph-name="uni03A9" unicode="&#x3a9;" horiz-adv-x="461" 
d="M407 295.5q-24 -67.5 -69 -155.5l-10 -21l94 11v-130h-183v108q17 71 14 60q21 91 30 147.5t9 119.5q0 69 -15.5 105.5t-46.5 36.5q-29 0 -45 -36.5t-16 -105.5q0 -78 12 -147t41 -180v-108h-183v130l95 -11l-15 30q-44 88 -66.5 153t-22.5 142q0 129 51 198.5t150 69.5
q96 0 148 -69t52 -199q0 -81 -24 -148.5z" />
    <glyph glyph-name="Iotadieresis" unicode="&#x3aa;" horiz-adv-x="234" 
d="M186 0h-138v700h138v-700zM95 756h-95v124h95v-124zM233 756h-94v124h94v-124z" />
    <glyph glyph-name="Upsilondieresis" unicode="&#x3ab;" horiz-adv-x="395" 
d="M249 700h143l-126 -504v-196h-138v196l-125 504h143l52 -318zM176 756h-95v124h95v-124zM314 756h-94v124h94v-124z" />
    <glyph glyph-name="alphatonos" unicode="&#x3ac;" horiz-adv-x="444" 
d="M401 549l-12 -275l12 -274h-132l-3 73q-20 -42 -47 -63t-55 -21q-68 0 -104 73t-36 211q0 140 36 214t103 74q29 0 56 -21t47 -64l3 73h132zM241.5 156q14.5 46 14.5 118q0 73 -14.5 119t-34.5 46q-46 0 -46 -166q0 -163 46 -163q20 0 34.5 46zM294 754l-46 -149h-81
l11 149h116z" />
    <glyph glyph-name="epsilontonos" unicode="&#x3ad;" horiz-adv-x="306" 
d="M100.5 11q-38.5 21 -59.5 57.5t-21 81.5q0 49 20 83.5t53 46.5q-31 12 -50 45.5t-19 76.5q0 46 22 82t60 55.5t84 19.5q47 0 97 -16l-16 -114q-25 13 -55 13q-27 0 -44 -15.5t-17 -39.5t14.5 -38.5t35.5 -14.5h44v-103h-40q-25 0 -40.5 -18t-15.5 -45t17.5 -43t44.5 -16
q16 0 32.5 4t26.5 10l16 -120q-20 -6 -49.5 -9.5t-52.5 -3.5q-49 0 -87.5 21zM265 754l-46 -149h-81l11 149h116z" />
    <glyph glyph-name="etatonos" unicode="&#x3ae;" horiz-adv-x="424" 
d="M356 519q27 -42 27 -131v-559h-133v552q0 56 -29 56q-12 0 -24.5 -14.5t-20.5 -39.5v-383h-133v549h133v-55q17 31 42 49t55 18q56 0 83 -42zM297 754l-46 -149h-81l11 149h116z" />
    <glyph glyph-name="iotatonos" unicode="&#x3af;" horiz-adv-x="222" 
d="M74 26q-33 38 -33 118v405h133v-401q0 -35 22 -35h9l9 -121q-17 -4 -36 -4q-71 0 -104 38zM191 754l-46 -149h-81l11 149h116z" />
    <glyph glyph-name="upsilondieresistonos" unicode="&#x3b0;" horiz-adv-x="428" 
d="M255 549h133v-381q0 -84 -44.5 -132t-129.5 -48q-80 0 -126.5 46.5t-46.5 133.5v381h133v-381q0 -26 10 -41.5t30 -15.5q19 0 30 14.5t11 42.5v381zM271 792l-42 -150h-60l10 150h92zM135 595h-79v111h79v-111zM358 595h-79v111h79v-111z" />
    <glyph glyph-name="alpha" unicode="&#x3b1;" horiz-adv-x="444" 
d="M401 549l-12 -275l12 -274h-132l-3 73q-20 -42 -47 -63t-55 -21q-68 0 -104 73t-36 211q0 140 36 214t103 74q29 0 56 -21t47 -64l3 73h132zM241.5 156q14.5 46 14.5 118q0 73 -14.5 119t-34.5 46q-46 0 -46 -166q0 -163 46 -163q20 0 34.5 46z" />
    <glyph glyph-name="beta" unicode="&#x3b2;" horiz-adv-x="449" 
d="M45 525q0 94 44.5 149.5t127.5 55.5q81 0 128.5 -52.5t47.5 -148.5q0 -39 -17.5 -80t-42.5 -57q38 -13 65.5 -64.5t27.5 -115.5q0 -68 -21.5 -118.5t-59 -77.5t-85.5 -27q-46 0 -82 31v-191h-133v696zM178 142q13 -15 27 -23.5t26 -8.5q27 0 42.5 28.5t15.5 78.5
q0 49 -14 77.5t-37 28.5h-39v109h17q17 0 28.5 25.5t11.5 67.5q0 39 -10.5 61.5t-29.5 22.5q-18 0 -28 -21.5t-10 -62.5v-383z" />
    <glyph glyph-name="gamma" unicode="&#x3b3;" horiz-adv-x="409" 
d="M206 200l59 349h136l-129 -521v-199h-133v199l-131 521h138l58 -349h2z" />
    <glyph glyph-name="delta" unicode="&#x3b4;" horiz-adv-x="409" 
d="M209 621q79 -84 127.5 -185t48.5 -212q0 -106 -47 -170t-133 -64q-82 0 -131.5 61t-49.5 172q0 95 35.5 160t94.5 117q-42 62 -97 121l11 118h301v-118h-160zM239 141q13 28 13 79q0 84 -40 174q-30 -37 -42 -74.5t-12 -98.5q0 -108 47 -108q21 0 34 28z" />
    <glyph glyph-name="epsilon" unicode="&#x3b5;" horiz-adv-x="306" 
d="M100.5 11q-38.5 21 -59.5 57.5t-21 81.5q0 49 20 83.5t53 46.5q-31 12 -50 45.5t-19 76.5q0 46 22 82t60 55.5t84 19.5q47 0 97 -16l-16 -114q-25 13 -55 13q-27 0 -44 -15.5t-17 -39.5t14.5 -38.5t35.5 -14.5h44v-103h-40q-25 0 -40.5 -18t-15.5 -45t17.5 -43t44.5 -16
q16 0 32.5 4t26.5 10l16 -120q-20 -6 -49.5 -9.5t-52.5 -3.5q-49 0 -87.5 21z" />
    <glyph glyph-name="zeta" unicode="&#x3b6;" horiz-adv-x="331" 
d="M295.5 68q15.5 -17 26 -43t10.5 -62q0 -57 -25 -134h-117q25 70 25 107q0 32 -13.5 53t-43.5 44q-59 42 -88 94.5t-29 131.5q0 104 40 196.5t107 166.5h-138v116h255l-1 -115l1 -1q-62 -70 -95.5 -160.5t-33.5 -200.5q0 -48 19 -83t59 -70q26 -23 41.5 -40z" />
    <glyph glyph-name="eta" unicode="&#x3b7;" horiz-adv-x="424" 
d="M356 519q27 -42 27 -131v-559h-133v552q0 56 -29 56q-12 0 -24.5 -14.5t-20.5 -39.5v-383h-133v549h133v-55q17 31 42 49t55 18q56 0 83 -42z" />
    <glyph glyph-name="theta" unicode="&#x3b8;" horiz-adv-x="437" 
d="M362.5 652.5q50.5 -97.5 50.5 -283.5q0 -181 -50 -281t-145 -100q-92 0 -143 97.5t-51 283.5q0 180 50 280.5t145 100.5q93 0 143.5 -97.5zM175.5 567q-15.5 -59 -16.5 -172l92 24l27 -18q-2 107 -17.5 166t-42.5 59t-42.5 -59zM261.5 171.5q15.5 58.5 16.5 171.5
l-101 -26l-18 12q3 -103 18 -159.5t42 -56.5t42.5 58.5z" />
    <glyph glyph-name="iota" unicode="&#x3b9;" horiz-adv-x="222" 
d="M74 26q-33 38 -33 118v405h133v-401q0 -35 22 -35h9l9 -121q-17 -4 -36 -4q-71 0 -104 38z" />
    <glyph glyph-name="kappa" unicode="&#x3ba;" horiz-adv-x="403" 
d="M397 0h-147l-52 214h-22v-214h-133v550h133v-218h22l44 218h145l-85 -271z" />
    <glyph glyph-name="lambda" unicode="&#x3bb;" horiz-adv-x="409" 
d="M8 -2l119 555l-5 29q-4 25 -12.5 31.5t-26.5 6.5l1 116q58 2 94.5 -7.5t60 -39t34.5 -85.5l127 -606h-135l-59 379l-62 -379h-136z" />
    <glyph glyph-name="uni03BC" unicode="&#x3bc;" horiz-adv-x="427" 
d="M252 549h132v-549h-132v56q-32 -58 -82 -67l8 -160h-137l3 505v215h133v-381q0 -56 29 -56q12 0 24.5 14.5t21.5 40.5v382z" />
    <glyph glyph-name="nu" unicode="&#x3bd;" horiz-adv-x="409" 
d="M285 0h-160l-117 549h136l59 -378h3l59 378h135z" />
    <glyph glyph-name="xi" unicode="&#x3be;" horiz-adv-x="337" 
d="M182 -172q12 33 18 54.5t6 41.5q0 31 -12.5 51.5t-46.5 45.5q-62 46 -92.5 95.5t-30.5 105.5q0 67 22.5 112.5t64.5 61.5q-39 20 -61 61t-22 98q0 58 23.5 102t65 68.5t92.5 24.5q47 0 98 -16l-20 -119q-31 11 -61 11t-48 -21.5t-18 -58.5q0 -44 18 -69t51 -25h45v-114
h-46q-32 0 -50.5 -27.5t-18.5 -79.5q0 -35 16.5 -63.5t56.5 -57.5q44 -33 67 -70.5t23 -85.5q0 -57 -26 -126h-114z" />
    <glyph glyph-name="omicron" unicode="&#x3bf;" horiz-adv-x="414" 
d="M71.5 61.5q-47.5 73.5 -47.5 214.5q0 138 46.5 211.5t137.5 73.5q88 0 135.5 -72.5t47.5 -211.5q0 -140 -47 -214.5t-137 -74.5q-88 0 -135.5 73.5zM256 276q0 161 -49 161t-49 -160q0 -164 50 -164q48 0 48 163z" />
    <glyph glyph-name="pi" unicode="&#x3c0;" horiz-adv-x="424" 
d="M381 549v-549h-133v434h-72v-434h-133v549h338z" />
    <glyph glyph-name="rho" unicode="&#x3c1;" horiz-adv-x="430" 
d="M41 274q0 133 47 210t135 77q84 0 133.5 -74t49.5 -212q0 -132 -35 -209t-103 -77q-36 0 -61 20.5t-34 45.5v-226h-132v445zM223 111q46 0 46 163q0 77 -12.5 120.5t-35.5 43.5q-22 0 -34.5 -41.5t-12.5 -121.5q0 -164 49 -164z" />
    <glyph glyph-name="uni03C2" unicode="&#x3c2;" horiz-adv-x="333" 
d="M177 -171q12 35 18 59t6 48q0 29 -14 48.5t-50 47.5q-64 50 -88.5 105.5t-24.5 151.5q0 125 50.5 198t145.5 73q43 0 86 -14l-21 -118q-24 12 -51 12q-37 0 -56.5 -37.5t-19.5 -105.5q0 -66 14 -105t49 -69q54 -49 75.5 -83t21.5 -80q0 -53 -24 -131h-117z" />
    <glyph glyph-name="sigma" unicode="&#x3c3;" horiz-adv-x="414" 
d="M412 412q-18 0 -40 15q19 -65 19 -150q0 -140 -47 -214.5t-137 -74.5q-88 0 -135.5 73.5t-47.5 214.5q0 138 46.5 211.5t137.5 73.5q10 0 26 -2q19 -1 68 -5q72 -6 110 -6v-136zM256 276q0 161 -49 161t-49 -160q0 -164 50 -164q48 0 48 163z" />
    <glyph glyph-name="tau" unicode="&#x3c4;" horiz-adv-x="276" 
d="M260 434h-70v-286q0 -17 6 -26t16 -9h9l10 -121q-17 -4 -36 -4q-71 0 -104.5 38.5t-33.5 117.5v290h-39v115h242v-115z" />
    <glyph glyph-name="upsilon" unicode="&#x3c5;" horiz-adv-x="428" 
d="M255 549h133v-381q0 -84 -44.5 -132t-129.5 -48q-80 0 -126.5 46.5t-46.5 133.5v381h133v-381q0 -26 10 -41.5t30 -15.5q19 0 30 14.5t11 42.5v381z" />
    <glyph glyph-name="phi" unicode="&#x3c6;" horiz-adv-x="582" 
d="M506 67q-53 -78 -149 -79v-158h-132v158q-91 1 -146 75.5t-55 212.5q0 130 53 207t148 78v139h132v-139q60 -1 105.5 -33.5t71 -96.5t25.5 -154q0 -132 -53 -210zM175 158q17 -44 50 -45v324q-31 -2 -49 -42.5t-18 -117.5q0 -75 17 -119zM357 113q31 2 49 43t18 120
q0 74 -17 117t-50 44v-324z" />
    <glyph glyph-name="chi" unicode="&#x3c7;" horiz-adv-x="438" 
d="M311 196l119 -367h-140l-71 268l-71 -268h-140l118 367l-104 355h138l59 -241l58 241h138z" />
    <glyph glyph-name="psi" unicode="&#x3c8;" horiz-adv-x="564" 
d="M389 549h132v-354q0 -86 -44 -133t-130 -53v-180h-132l1 180q-86 7 -130.5 54t-44.5 132v354h132v-359q0 -30 12.5 -48t37.5 -20l-1 427h117v-427q24 -1 37 18t13 50v359z" />
    <glyph glyph-name="omega" unicode="&#x3c9;" horiz-adv-x="573" 
d="M34.5 409.5q10.5 64.5 41.5 139.5h136q-31 -68 -42.5 -138.5t-11.5 -150.5q0 -69 9 -110t27 -41q16 0 25 35t9 102v134l117 -1v-134q0 -65 8.5 -100.5t25.5 -35.5q16 0 25.5 39t9.5 112q0 80 -11 150t-42 139h135q32 -75 42.5 -137.5t10.5 -147.5q0 -126 -38.5 -201
t-107.5 -75q-48 0 -79.5 32.5t-37.5 90.5q-5 -58 -35.5 -90.5t-80.5 -32.5q-67 0 -106.5 73t-39.5 203q0 81 10.5 145.5z" />
    <glyph glyph-name="iotadieresis" unicode="&#x3ca;" horiz-adv-x="222" 
d="M74 26q-33 38 -33 118v405h133v-401q0 -35 22 -35h9l9 -121q-17 -4 -36 -4q-71 0 -104 38zM87 605h-95v124h95v-124zM225 605h-94v124h94v-124z" />
    <glyph glyph-name="upsilondieresis" unicode="&#x3cb;" horiz-adv-x="428" 
d="M255 549h133v-381q0 -84 -44.5 -132t-129.5 -48q-80 0 -126.5 46.5t-46.5 133.5v381h133v-381q0 -26 10 -41.5t30 -15.5q19 0 30 14.5t11 42.5v381zM186 605h-95v124h95v-124zM324 605h-94v124h94v-124z" />
    <glyph glyph-name="omicrontonos" unicode="&#x3cc;" horiz-adv-x="414" 
d="M71.5 61.5q-47.5 73.5 -47.5 214.5q0 138 46.5 211.5t137.5 73.5q88 0 135.5 -72.5t47.5 -211.5q0 -140 -47 -214.5t-137 -74.5q-88 0 -135.5 73.5zM256 276q0 161 -49 161t-49 -160q0 -164 50 -164q48 0 48 163zM289 754l-46 -149h-81l11 149h116z" />
    <glyph glyph-name="upsilontonos" unicode="&#x3cd;" horiz-adv-x="428" 
d="M255 549h133v-381q0 -84 -44.5 -132t-129.5 -48q-80 0 -126.5 46.5t-46.5 133.5v381h133v-381q0 -26 10 -41.5t30 -15.5q19 0 30 14.5t11 42.5v381zM289 754l-46 -149h-81l11 149h116z" />
    <glyph glyph-name="omegatonos" unicode="&#x3ce;" horiz-adv-x="573" 
d="M34.5 409.5q10.5 64.5 41.5 139.5h136q-31 -68 -42.5 -138.5t-11.5 -150.5q0 -69 9 -110t27 -41q16 0 25 35t9 102v134l117 -1v-134q0 -65 8.5 -100.5t25.5 -35.5q16 0 25.5 39t9.5 112q0 80 -11 150t-42 139h135q32 -75 42.5 -137.5t10.5 -147.5q0 -126 -38.5 -201
t-107.5 -75q-48 0 -79.5 32.5t-37.5 90.5q-5 -58 -35.5 -90.5t-80.5 -32.5q-67 0 -106.5 73t-39.5 203q0 81 10.5 145.5zM368 754l-46 -149h-81l11 149h116z" />
    <glyph glyph-name="uni0400" unicode="&#x400;" horiz-adv-x="380" 
d="M186 296v-171h169v-125h-307v700h303v-125h-165v-158h140v-121h-140zM245 761l-82 -7l-86 131l113 18z" />
    <glyph glyph-name="uni0401" unicode="&#x401;" horiz-adv-x="380" 
d="M186 296v-171h169v-125h-307v700h303v-125h-165v-158h140v-121h-140zM180 756h-95v124h95v-124zM318 756h-94v124h94v-124z" />
    <glyph glyph-name="uni0402" unicode="&#x402;" horiz-adv-x="516" 
d="M450.5 394q35.5 -56 35.5 -158v-13q0 -235 -169 -235q-24 0 -50 9l14 119q11 -3 22 -3q22 0 33 26.5t11 85.5v12q0 42 -9.5 64.5t-26.5 22.5q-37 0 -68 -24v-300h-138v581h-95v119h366v-119h-133v-161q63 30 109 30q63 0 98.5 -56z" />
    <glyph glyph-name="uni0403" unicode="&#x403;" horiz-adv-x="348" 
d="M48 0v700h290v-125h-146v-575h-144zM289 885l-86 -131l-82 7l55 142z" />
    <glyph glyph-name="uni0404" unicode="&#x404;" horiz-adv-x="386" 
d="M370 8q-16 -7 -44 -13.5t-59 -6.5q-111 0 -174 91.5t-63 270.5q0 174 60 267.5t173 93.5q44 0 101 -21l-20 -129q-35 16 -70 16q-42 0 -65 -39t-28 -132h148v-114h-147q4 -87 26.5 -128t64.5 -41q44 0 75 17z" />
    <glyph glyph-name="uni0405" unicode="&#x405;" horiz-adv-x="358" 
d="M19 17l19 129q52 -30 92 -30q31 0 47.5 17.5t16.5 52.5q0 25 -16.5 51t-51.5 68q-49 58 -77 107t-28 107q0 91 47 142t129 51q58 0 128 -27l-19 -129q-47 25 -81 25q-27 0 -42.5 -16.5t-15.5 -47.5q0 -27 16.5 -53t52.5 -69q49 -57 76 -106t27 -112q0 -86 -49.5 -138
t-131.5 -52q-70 0 -139 30z" />
    <glyph glyph-name="uni0406" unicode="&#x406;" horiz-adv-x="234" 
d="M186 0h-138v700h138v-700z" />
    <glyph glyph-name="uni0407" unicode="&#x407;" horiz-adv-x="234" 
d="M186 0h-138v700h138v-700zM95 756h-95v124h95v-124zM233 756h-94v124h94v-124z" />
    <glyph glyph-name="uni0408" unicode="&#x408;" horiz-adv-x="315" 
d="M36.5 -7q-25.5 5 -30.5 6l19 124q24 -3 50 -3q31 0 47 24t16 84v347h-58v125h196v-476q0 -120 -51 -178t-143 -58q-20 0 -45.5 5z" />
    <glyph glyph-name="uni0409" unicode="&#x409;" horiz-adv-x="666" 
d="M440 497q101 0 154.5 -67t53.5 -183q0 -119 -56 -183t-153 -64h-160v581h-68l-10 -317q-3 -100 -17.5 -158t-46.5 -85.5t-87 -27.5q-17 0 -40 3v125q8 -2 12 -2q22 0 30.5 34t11.5 119l13 428h340v-203h23zM436 122q34 0 53.5 34t19.5 91q0 62 -20 95t-54 33h-18v-253h19
z" />
    <glyph glyph-name="uni040A" unicode="&#x40a;" horiz-adv-x="696" 
d="M470 451q96 0 152 -58.5t56 -168.5q0 -104 -53.5 -164t-154.5 -60h-174v322h-105v-322h-143v700h143v-251h105v251h145v-249h29zM467 122q33 0 53 26.5t20 75.5q0 48 -19 76t-54 28h-26v-206h26z" />
    <glyph glyph-name="uni040B" unicode="&#x40b;" horiz-adv-x="526" 
d="M450.5 408q34.5 -43 34.5 -131v-277h-138v271q0 29 -9 42t-27 13q-34 0 -68 -26v-300h-138v581h-95v119h366v-119h-133v-162q67 32 109 32q64 0 98.5 -43z" />
    <glyph glyph-name="uni040C" unicode="&#x40c;" horiz-adv-x="457" 
d="M448 0h-150l-78 285h-34v-285h-138v700h138v-297h35l69 297h151l-106 -339zM372 847l-89 -106l-98 7l67 125z" />
    <glyph glyph-name="uni040D" unicode="&#x40d;" horiz-adv-x="476" 
d="M428 700v-700h-132v373l-130 -373h-118v700h132v-360l125 360h123zM280 761l-82 -7l-86 131l113 18z" />
    <glyph glyph-name="uni040E" unicode="&#x40e;" horiz-adv-x="402" 
d="M394 700l-132 -564v-1l-10 -39q-13 -50 -49 -78.5t-90 -28.5q-46 0 -85 20l20 122q29 -17 54 -17q11 0 17 6.5t9 21.5l5 25l-125 533h144l49 -337h1l49 337h143zM320 882q0 -70 -29.5 -103.5t-89.5 -33.5q-59 0 -89 32t-30 105l91 1q0 -62 28 -62q29 0 29 62z" />
    <glyph glyph-name="uni040F" unicode="&#x40f;" horiz-adv-x="474" 
d="M288 700h138v-700h-120v-119h-136v119h-122v700h138v-573h102v573z" />
    <glyph glyph-name="uni0410" unicode="&#x410;" horiz-adv-x="456" 
d="M449 0h-141l-19 122h-123l-19 -122h-140l132 700h177zM227 507l-43 -272h87l-43 272h-1z" />
    <glyph glyph-name="uni0411" unicode="&#x411;" horiz-adv-x="457" 
d="M226 434q103 -3 157.5 -61t54.5 -163q0 -96 -56 -153t-151 -57h-183v700h334v-126h-196v-139zM214 118q39 0 61.5 26.5t22.5 79.5q0 49 -22.5 74.5t-62.5 25.5h-27v-206h28z" />
    <glyph glyph-name="uni0412" unicode="&#x412;" horiz-adv-x="449" 
d="M400 302q30 -43 30 -107q0 -91 -54.5 -143t-157.5 -52h-170v700h159q97 0 151 -47t54 -136q0 -54 -24.5 -95t-68.5 -60q51 -17 81 -60zM183 580v-172h13q80 0 80 85q0 44 -19 65.5t-61 21.5h-13zM207 120q86 0 86 89t-87 89h-23v-178h24z" />
    <glyph glyph-name="uni0413" unicode="&#x413;" horiz-adv-x="348" 
d="M48 0v700h290v-125h-146v-575h-144z" />
    <glyph glyph-name="uni0414" unicode="&#x414;" horiz-adv-x="567" 
d="M10 -119v246h61q19 28 32.5 109t16.5 229l4 235h366v-573h67v-246h-131v119h-285v-119h-131zM351 127v454h-90l-2 -103q-4 -236 -48 -351h140z" />
    <glyph glyph-name="uni0415" unicode="&#x415;" horiz-adv-x="380" 
d="M186 296v-171h169v-125h-307v700h303v-125h-165v-158h140v-121h-140z" />
    <glyph glyph-name="uni0416" unicode="&#x416;" horiz-adv-x="672" 
d="M664 0h-150l-78 285h-34v-285h-138v285h-27l-79 -285h-149l113 360l-107 340h151l69 -297h29v297h138v-297h35l69 297h151l-106 -339z" />
    <glyph glyph-name="uni0417" unicode="&#x417;" horiz-adv-x="365" 
d="M325 299.5q22 -45.5 22 -109.5q0 -91 -56 -146.5t-148 -55.5q-30 0 -65 5.5t-62 13.5l19 133q15 -10 36 -15.5t41 -5.5q39 0 64 24.5t25 63.5q0 49 -22.5 73t-57.5 24h-54v115h58q29 0 51 19.5t22 61.5q0 38 -23.5 60t-61.5 22q-22 0 -38 -4t-37 -15l-18 125q32 14 57 19
t63 5q59 0 105 -25t72 -70t26 -103t-21 -99.5t-57 -55.5q38 -14 60 -59.5z" />
    <glyph glyph-name="uni0418" unicode="&#x418;" horiz-adv-x="476" 
d="M428 700v-700h-132v373l-130 -373h-118v700h132v-360l125 360h123z" />
    <glyph glyph-name="uni0419" unicode="&#x419;" horiz-adv-x="476" 
d="M428 700v-700h-132v373l-130 -373h-118v700h132v-360l125 360h123zM357 883q0 -70 -29.5 -103.5t-89.5 -33.5q-59 0 -89 32t-30 105l91 1q0 -62 28 -62q29 0 29 62z" />
    <glyph glyph-name="uni041A" unicode="&#x41a;" horiz-adv-x="457" 
d="M448 0h-150l-78 285h-34v-285h-138v700h138v-297h35l69 297h151l-106 -339z" />
    <glyph glyph-name="uni041B" unicode="&#x41b;" horiz-adv-x="469" 
d="M10 121q8 -2 12 -2q22 0 30.5 34t11.5 119l13 428h345v-700h-139v581h-71l-11 -317q-3 -100 -17.5 -158t-46.5 -85.5t-87 -27.5q-17 0 -40 3v125z" />
    <glyph glyph-name="uni041C" unicode="&#x41c;" horiz-adv-x="521" 
d="M261 393l93 307h119v-700h-129v358l-62 -229h-43l-63 230v-359h-128v700h120z" />
    <glyph glyph-name="uni041D" unicode="&#x41d;" horiz-adv-x="488" 
d="M296 412v288h145v-700h-145v286h-105v-286h-143v700h143v-288h105z" />
    <glyph glyph-name="uni041E" unicode="&#x41e;" horiz-adv-x="473" 
d="M30 350q0 362 206 362q102 0 154.5 -88t52.5 -274q0 -362 -207 -362q-206 0 -206 362zM270.5 144.5q12.5 21.5 18 70.5t5.5 135t-5 134.5t-17.5 70.5t-35.5 22q-21 0 -33.5 -21.5t-18 -71t-5.5 -134.5t5 -133.5t17.5 -71t34.5 -22.5t34.5 21.5z" />
    <glyph glyph-name="uni041F" unicode="&#x41f;" horiz-adv-x="474" 
d="M426 700v-700h-138v573h-102v-573h-138v700h378z" />
    <glyph glyph-name="uni0420" unicode="&#x420;" horiz-adv-x="434" 
d="M360 636q56 -64 56 -183q0 -116 -53.5 -183t-154.5 -67h-22v-203h-138v700h159q97 0 153 -64zM204 325q33 0 53 33.5t20 94.5q0 57 -19.5 91t-53.5 34h-18v-253h18z" />
    <glyph glyph-name="uni0421" unicode="&#x421;" horiz-adv-x="386" 
d="M93 79.5q-63 91.5 -63 270.5q0 174 60 267.5t173 93.5q44 0 101 -21l-20 -129q-35 16 -70 16q-48 0 -71 -51t-23 -175q0 -119 22.5 -173.5t70.5 -54.5q44 0 75 17l22 -132q-16 -7 -44 -13.5t-59 -6.5q-111 0 -174 91.5z" />
    <glyph glyph-name="uni0422" unicode="&#x422;" horiz-adv-x="361" 
d="M10 700h341v-127h-102v-573h-138v573h-101v127z" />
    <glyph glyph-name="uni0423" unicode="&#x423;" horiz-adv-x="402" 
d="M394 700l-132 -564v-1l-10 -39q-13 -50 -49 -78.5t-90 -28.5q-46 0 -85 20l20 122q29 -17 54 -17q11 0 17 6.5t9 21.5l5 25l-125 533h144l49 -337h1l49 337h143z" />
    <glyph glyph-name="uni0424" unicode="&#x424;" horiz-adv-x="590" 
d="M507.5 150.5q-52.5 -76.5 -143.5 -81.5v-69h-138v69q-90 5 -143 79.5t-53 201.5q0 122 52 199.5t144 81.5v69h138v-69q89 -5 142.5 -78.5t53.5 -202.5q0 -123 -52.5 -199.5zM364 185q25 4 40 46.5t15 118.5q0 74 -14.5 118t-40.5 48v-331zM186 233q14 -44 40 -48v331
q-26 -5 -40 -47.5t-14 -118.5q0 -73 14 -117z" />
    <glyph glyph-name="uni0425" unicode="&#x425;" horiz-adv-x="436" 
d="M311 356l116 -356h-146l-66 253l-60 -253h-146l110 354l-103 347h145l54 -232l54 232h145z" />
    <glyph glyph-name="uni0426" unicode="&#x426;" horiz-adv-x="503" 
d="M363 0h-315v700h138v-573h102v573h138v-573h67v-246h-130v119z" />
    <glyph glyph-name="uni0427" unicode="&#x427;" horiz-adv-x="467" 
d="M281 700h138v-700h-138v243q-66 -32 -109 -32q-64 0 -98.5 46.5t-34.5 134.5v308h138v-303q0 -61 37 -61q33 0 67 26v338z" />
    <glyph glyph-name="uni0428" unicode="&#x428;" horiz-adv-x="686" 
d="M639 0h-591v700h138v-573h88v573h138v-573h88v573h139v-700z" />
    <glyph glyph-name="uni0429" unicode="&#x429;" horiz-adv-x="716" 
d="M639 700v-573h67v-246h-131v119h-527v700h138v-573h88v573h138v-573h88v573h139z" />
    <glyph glyph-name="uni042A" unicode="&#x42a;" horiz-adv-x="484" 
d="M253 497q101 0 154.5 -67t53.5 -183q0 -119 -56 -183t-153 -64h-160v573h-82v127h221v-203h22zM249 122q34 0 53 34t19 91q0 62 -19.5 95t-53.5 33h-17v-253h18z" />
    <glyph glyph-name="uni042B" unicode="&#x42b;" horiz-adv-x="668" 
d="M208 497q101 0 154.5 -67t53.5 -183q0 -119 -56 -183t-152 -64h-160v700h138v-203h22zM205 122q34 0 53 34t19 91q0 61 -20 94.5t-53 33.5h-18v-253h19zM620 0h-138v700h138v-700z" />
    <glyph glyph-name="uni042C" unicode="&#x42c;" horiz-adv-x="434" 
d="M208 497q101 0 154.5 -67t53.5 -183q0 -119 -56 -183t-152 -64h-160v700h138v-203h22zM205 122q34 0 53 34t19 91q0 61 -20 94.5t-53 33.5h-18v-253h19z" />
    <glyph glyph-name="uni042D" unicode="&#x42d;" horiz-adv-x="386" 
d="M296.5 617.5q59.5 -93.5 59.5 -267.5q0 -179 -63 -270.5t-173 -91.5q-32 0 -60 6.5t-44 13.5l22 132q32 -17 76 -17q42 0 64 41t27 130h-147v111h147q-5 94 -27.5 133t-64.5 39q-35 0 -70 -16l-20 129q56 21 100 21q114 0 173.5 -93.5z" />
    <glyph glyph-name="uni042E" unicode="&#x42e;" horiz-adv-x="657" 
d="M574 620q53 -92 53 -270q0 -175 -52.5 -268.5t-154.5 -93.5q-91 0 -142.5 76t-59.5 225h-32v-289h-138v700h138v-292h32q8 148 58.5 226t143.5 78q101 0 154 -92zM469 170.5q16 55.5 16 179.5t-16 179.5t-49 55.5t-49 -55.5t-16 -179.5t15.5 -179.5t49.5 -55.5
q33 0 49 55.5z" />
    <glyph glyph-name="uni042F" unicode="&#x42f;" horiz-adv-x="439" 
d="M391 700v-700h-138v226h-21l-73 -226h-144l91 263q-41 30 -62 81t-21 120q0 114 56 175t152 61h160zM253 348v230h-18q-35 0 -54.5 -31t-19.5 -83q0 -56 20 -86t54 -30h18z" />
    <glyph glyph-name="uni0430" unicode="&#x430;" horiz-adv-x="396" 
d="M314.5 509.5q41.5 -51.5 41.5 -152.5v-357h-132v61q-30 -73 -91 -73q-53 0 -84.5 43.5t-31.5 133.5q0 79 35.5 123.5t108.5 44.5q25 0 63 -4v30q0 46 -15 65.5t-47 19.5q-20 0 -46 -7t-45 -17l-15 114q56 27 124 27q93 0 134.5 -51.5zM212 135.5q12 31.5 12 99.5v10
q-22 2 -35 2q-21 0 -33 -17.5t-12 -54.5t10 -54t26 -17q20 0 32 31.5z" />
    <glyph glyph-name="uni0431" unicode="&#x431;" horiz-adv-x="410" 
d="M83.5 53.5q-48.5 64.5 -56.5 181.5q-3 32 -3 76q0 144 29.5 222t72.5 109.5t117 58.5q41 15 63 25t46 27l20 -116q-26 -21 -46 -30.5t-53 -21.5q-39 -14 -56.5 -25t-31.5 -40t-23 -88q32 64 92 64q61 0 97 -69.5t36 -178.5q0 -121 -48 -190t-135 -69q-72 0 -120.5 64.5z
M240 142.5q12 35.5 12 104.5q0 65 -10 99t-34 34q-23 0 -35.5 -36t-12.5 -97q0 -67 12 -103.5t35 -36.5q21 0 33 35.5z" />
    <glyph glyph-name="uni0432" unicode="&#x432;" horiz-adv-x="400" 
d="M352.5 239.5q24.5 -33.5 24.5 -83.5q0 -71 -47 -113.5t-132 -42.5h-155v550h146q80 0 125.5 -36.5t45.5 -105.5q0 -43 -19.5 -75t-55.5 -48q43 -12 67.5 -45.5zM175 441v-122h10q25 0 38 16.5t13 47.5q0 27 -12.5 42.5t-37.5 15.5h-11zM193 109q27 0 41 15.5t14 45.5
q0 31 -14 48.5t-42 17.5h-17v-127h18z" />
    <glyph glyph-name="uni0433" unicode="&#x433;" horiz-adv-x="286" 
d="M43 -1v550h235v-116h-102v-434h-133z" />
    <glyph glyph-name="uni0434" unicode="&#x434;" horiz-adv-x="479" 
d="M414 118h57v-213h-125v95h-213v-95h-126v213h27q44 37 48 166l8 265h324v-431zM281 117v316h-63l-5 -137q-4 -116 -29 -179h97z" />
    <glyph glyph-name="uni0435" unicode="&#x435;" horiz-adv-x="389" 
d="M156 231q4 -64 21 -94.5t48 -30.5q49 0 91 27l23 -112q-24 -15 -57.5 -24t-67.5 -9q-88 0 -139 75.5t-51 212.5q0 132 45 208t133 76q79 0 121.5 -67.5t42.5 -193.5q0 -21 -7 -68h-203zM238 322q-2 124 -39 124q-39 0 -44 -124h83z" />
    <glyph glyph-name="uni0436" unicode="&#x436;" horiz-adv-x="588" 
d="M582 0h-147l-52 214h-22v-214h-133v214h-23l-52 -214h-147l95 279l-85 271h146l43 -218h23v218h133v-218h22l44 218h145l-85 -271z" />
    <glyph glyph-name="uni0437" unicode="&#x437;" horiz-adv-x="306" 
d="M65.5 -6.5q-29.5 3.5 -50.5 9.5l17 120q9 -6 25.5 -10t32.5 -4q27 0 45 16t18 43t-16 45t-40 18h-40v103h44q21 0 35 14.5t14 38.5t-16.5 39.5t-43.5 15.5q-30 0 -55 -13l-16 114q48 16 96 16q47 0 85 -19.5t60 -55.5t22 -82q0 -43 -19 -76.5t-51 -45.5q33 -12 53 -46.5
t20 -83.5q0 -45 -21 -81.5t-59 -57.5t-87 -21q-23 0 -52.5 3.5z" />
    <glyph glyph-name="uni0438" unicode="&#x438;" horiz-adv-x="426" 
d="M383 550v-550h-133v245l-83 -245h-124v550h133v-235l79 235h128z" />
    <glyph glyph-name="uni0439" unicode="&#x439;" horiz-adv-x="426" 
d="M383 550v-550h-133v245l-83 -245h-124v550h133v-235l79 235h128zM332 732q0 -70 -29.5 -103.5t-89.5 -33.5q-59 0 -89 32t-30 105l91 1q0 -62 28 -62q29 0 29 62z" />
    <glyph glyph-name="uni043A" unicode="&#x43a;" horiz-adv-x="403" 
d="M397 0h-147l-52 214h-22v-214h-133v550h133v-218h22l44 218h145l-85 -271z" />
    <glyph glyph-name="uni043B" unicode="&#x43b;" horiz-adv-x="435" 
d="M392 0h-133v433h-62l-7 -226q-3 -107 -36 -159t-107 -52q-19 0 -40 3l1 111q4 -1 10 -1q17 0 25 10.5t10.5 30.5t4.5 64l11 335h323v-549z" />
    <glyph glyph-name="uni043C" unicode="&#x43c;" horiz-adv-x="465" 
d="M233 351l55 198h134v-549h-132v252l-43 -156h-29l-42 156v-252h-133v549h135z" />
    <glyph glyph-name="uni043D" unicode="&#x43d;" horiz-adv-x="422" 
d="M247 332v218h132v-550h-132v220h-71v-220h-133v550h133v-218h71z" />
    <glyph glyph-name="uni043E" unicode="&#x43e;" horiz-adv-x="414" 
d="M71.5 61.5q-47.5 73.5 -47.5 214.5q0 138 46.5 211.5t137.5 73.5q88 0 135.5 -72.5t47.5 -211.5q0 -140 -47 -214.5t-137 -74.5q-88 0 -135.5 73.5zM256 276q0 161 -49 161t-49 -160q0 -164 50 -164q48 0 48 163z" />
    <glyph glyph-name="uni043F" unicode="&#x43f;" horiz-adv-x="424" 
d="M381 549v-549h-133v434h-72v-434h-133v549h338z" />
    <glyph glyph-name="uni0440" unicode="&#x440;" horiz-adv-x="432" 
d="M43 -171v720h133v-42q35 54 96 54q136 0 136 -288q0 -284 -137 -284q-60 0 -95 53v-213h-133zM271 273q0 91 -11.5 128.5t-32.5 37.5q-24 0 -37.5 -44t-13.5 -122q0 -163 51 -163q44 0 44 163z" />
    <glyph glyph-name="uni0441" unicode="&#x441;" horiz-adv-x="320" 
d="M75 62q-51 74 -51 213q0 138 51 212t149 74q36 0 81 -15l-20 -124q-31 14 -54 14q-36 0 -55 -40.5t-19 -119.5q0 -162 74 -162q27 0 54 13l20 -124q-48 -15 -79 -15q-100 0 -151 74z" />
    <glyph glyph-name="uni0442" unicode="&#x442;" horiz-adv-x="313" 
d="M18 549h278v-116h-73v-434l-133 1v433h-72v116z" />
    <glyph glyph-name="uni0443" unicode="&#x443;" horiz-adv-x="409" 
d="M25 -169l18 110q29 -9 55 -9q18 0 30 12t18 40l4 18h-16l-126 548h136l59 -369h3l59 369h135l-117 -554q-20 -97 -60.5 -138t-110.5 -41q-48 0 -87 14z" />
    <glyph glyph-name="uni0444" unicode="&#x444;" horiz-adv-x="582" 
d="M506 67q-53 -78 -149 -79v-158h-132v158q-91 1 -146 75.5t-55 212.5q0 130 53 207t148 78v139h132v-139q60 -1 105.5 -33.5t71 -96.5t25.5 -154q0 -132 -53 -210zM175 158q17 -44 50 -45v324q-31 -2 -49 -42.5t-18 -117.5q0 -75 17 -119zM357 113q31 2 49 43t18 120
q0 74 -17 117t-50 44v-324z" />
    <glyph glyph-name="uni0445" unicode="&#x445;" horiz-adv-x="412" 
d="M296 275l109 -275h-141l-57 181l-59 -181h-142l110 283l-99 266h141l47 -165l49 165h140z" />
    <glyph glyph-name="uni0446" unicode="&#x446;" horiz-adv-x="446" 
d="M381 542v-432h57v-212h-125v95h-270v549h133v-434h72v434h133z" />
    <glyph glyph-name="uni0447" unicode="&#x447;" horiz-adv-x="415" 
d="M240 549h132v-549h-132v191q-50 -37 -94 -37q-50 0 -80 46.5t-30 126.5v222h133v-210q0 -26 7.5 -41.5t21.5 -15.5q17 0 42 26v241z" />
    <glyph glyph-name="uni0448" unicode="&#x448;" horiz-adv-x="610" 
d="M434 117v432h133v-549h-524v549h133v-432h63v432h132v-432h63z" />
    <glyph glyph-name="uni0449" unicode="&#x449;" horiz-adv-x="632" 
d="M567 549v-431h57v-213h-125v95h-456v549h133v-432h63v432h132v-432h63v432h133z" />
    <glyph glyph-name="uni044A" unicode="&#x44a;" horiz-adv-x="451" 
d="M244 404q87 0 135.5 -54t48.5 -148q0 -95 -49 -148t-136 -53h-149v446h-76v104h209v-147h17zM241 117q25 0 38.5 21.5t13.5 63.5q0 43 -13 65t-39 22h-14v-172h14z" />
    <glyph glyph-name="uni044B" unicode="&#x44b;" horiz-adv-x="615" 
d="M192 403q87 0 135.5 -54t48.5 -148q0 -96 -48.5 -148.5t-135.5 -52.5h-149v549h133v-146h16zM189 116q26 0 39.5 21.5t13.5 63.5t-13.5 64.5t-39.5 22.5h-13v-172h13zM572 0h-133v549h133v-549z" />
    <glyph glyph-name="uni044C" unicode="&#x44c;" horiz-adv-x="393" 
d="M192 403q87 0 135.5 -54t48.5 -148q0 -96 -48.5 -148.5t-135.5 -52.5h-149v549h133v-146h16zM189 116q26 0 39.5 21.5t13.5 63.5t-13.5 64.5t-39.5 22.5h-13v-172h13z" />
    <glyph glyph-name="uni044D" unicode="&#x44d;" horiz-adv-x="320" 
d="M245.5 487q51.5 -74 51.5 -212q0 -139 -51.5 -213t-151.5 -74q-29 0 -79 15l20 124q27 -13 55 -13q62 0 71 116h-121v96h121q-12 110 -72 110q-23 0 -54 -14l-19 124q44 15 80 15q98 0 149.5 -74z" />
    <glyph glyph-name="uni044E" unicode="&#x44e;" horiz-adv-x="628" 
d="M555.5 487.5q49.5 -73.5 49.5 -210.5q0 -134 -47.5 -211.5t-137.5 -77.5q-75 0 -122.5 59t-57.5 170h-64v-217h-133v549h133v-215h64q10 107 56 167t125 60q85 0 134.5 -73.5zM457 153q13 40 13 123q0 161 -50 161q-48 0 -48 -160q0 -164 49 -164q23 0 36 40z" />
    <glyph glyph-name="uni044F" unicode="&#x44f;" horiz-adv-x="391" 
d="M348 0h-131v171h-19h-3l-41 -171h-138l63 208q-60 51 -60 152q0 92 49 140.5t131 48.5h149v-549zM217 279v157h-16q-24 0 -37 -21t-13 -56q0 -39 13.5 -59.5t36.5 -20.5h16z" />
    <glyph glyph-name="uni0450" unicode="&#x450;" horiz-adv-x="392" 
d="M158 231q5 -64 20.5 -94t46.5 -30q53 0 93 26l21 -112q-24 -15 -59.5 -23.5t-69.5 -8.5q-91 0 -138.5 74t-47.5 213q0 133 46 208.5t136 75.5q77 0 120 -63t43 -170q0 -42 -14 -96h-197zM243 322q2 59 -8.5 90t-32.5 31q-21 0 -31.5 -29.5t-12.5 -91.5h85zM247 611
l-82 -7l-86 131l113 18z" />
    <glyph glyph-name="uni0451" unicode="&#x451;" horiz-adv-x="392" 
d="M158 231q5 -64 20.5 -94t46.5 -30q53 0 93 26l21 -112q-24 -15 -59.5 -23.5t-69.5 -8.5q-91 0 -138.5 74t-47.5 213q0 133 46 208.5t136 75.5q77 0 120 -63t43 -170q0 -42 -14 -96h-197zM243 322q2 59 -8.5 90t-32.5 31q-21 0 -31.5 -29.5t-12.5 -91.5h85zM183 605h-95
v124h95v-124zM321 605h-94v124h94v-124z" />
    <glyph glyph-name="uni0452" unicode="&#x452;" horiz-adv-x="462" 
d="M393 519q27 -42 27 -131v-399q0 -72 -34.5 -112.5t-106.5 -40.5q-34 0 -81 17l18 115q21 -11 41 -11q30 0 30 43v381q0 56 -29 56q-19 0 -32.5 -26t-13.5 -82v-329h-133v584h-45v92h45v62h133v-62h71v-92h-71v-84q35 61 98 61q56 0 83 -42z" />
    <glyph glyph-name="uni0453" unicode="&#x453;" horiz-adv-x="286" 
d="M43 -1v550h235v-116h-102v-434h-133zM277 734l-86 -131l-82 7l55 142z" />
    <glyph glyph-name="uni0454" unicode="&#x454;" horiz-adv-x="320" 
d="M285 127l20 -124q-48 -15 -79 -15q-100 0 -151 74t-51 213q0 138 51 212t149 74q36 0 81 -15l-20 -124q-31 14 -54 14q-60 0 -72 -110h121v-96h-121q4 -57 22.5 -86.5t49.5 -29.5q27 0 54 13z" />
    <glyph glyph-name="uni0455" unicode="&#x455;" horiz-adv-x="322" 
d="M17 10l18 121q19 -10 44.5 -16.5t46.5 -6.5q19 0 30 11.5t11 32.5q0 20 -15 39t-48 47q-39 35 -61 71t-22 90q0 78 44 120t113 42q50 0 108 -21l-19 -120q-43 22 -74 22q-19 0 -29.5 -11.5t-10.5 -31.5q0 -23 14 -41t43 -44q45 -40 68 -79.5t23 -89.5q0 -72 -42.5 -114
t-116.5 -42q-57 0 -125 21z" />
    <glyph glyph-name="uni0456" unicode="&#x456;" horiz-adv-x="219" 
d="M176 0h-133v549h133v-549zM172 606h-138v124h138v-124z" />
    <glyph glyph-name="uni0457" unicode="&#x457;" horiz-adv-x="219" 
d="M176 0h-133v549h133v-549zM88 605h-95v124h95v-124zM226 605h-94v124h94v-124z" />
    <glyph glyph-name="uni0458" unicode="&#x458;" horiz-adv-x="222" 
d="M-3 -65q6 1 21 1t21.5 14t6.5 50v549h133v-549q0 -93 -33 -135.5t-103 -42.5q-28 0 -46 6v107zM174 606h-138v124h138v-124z" />
    <glyph glyph-name="uni0459" unicode="&#x459;" horiz-adv-x="615" 
d="M409 397q87 0 134.5 -53t47.5 -145q0 -95 -49.5 -147t-133.5 -52h-149v433h-62l-7 -226q-3 -107 -36 -159t-107 -52q-19 0 -40 3l1 111q4 -1 10 -1q17 0 25 10.5t10.5 30.5t4.5 64l11 335h323v-152h17zM406 116q25 0 38 21t13 62q0 43 -13 65t-38 22h-14v-170h14z" />
    <glyph glyph-name="uni045A" unicode="&#x45a;" horiz-adv-x="603" 
d="M395 373q84 0 134 -49t50 -133q0 -87 -49.5 -139t-134.5 -52h-149v259h-70v-259h-133v550h133v-179h70v178h133v-176h16zM392 116q24 0 38.5 20.5t14.5 54.5q0 31 -14 49t-39 18h-13v-142h13z" />
    <glyph glyph-name="uni045B" unicode="&#x45b;" horiz-adv-x="426" 
d="M358 519q27 -42 27 -131v-388h-133v381q0 56 -28 56q-20 0 -33 -26t-13 -82v-329h-133v584h-46v92h46v62h133v-62h71v-92h-71v-83q36 60 98 60q55 0 82 -42z" />
    <glyph glyph-name="uni045C" unicode="&#x45c;" horiz-adv-x="403" 
d="M397 0h-147l-52 214h-22v-214h-133v550h133v-218h22l44 218h145l-85 -271zM325 734l-86 -131l-82 7l55 142z" />
    <glyph glyph-name="uni045D" unicode="&#x45d;" horiz-adv-x="426" 
d="M383 550v-550h-133v245l-83 -245h-124v550h133v-235l79 235h128zM256 611l-82 -7l-86 131l113 18z" />
    <glyph glyph-name="uni045E" unicode="&#x45e;" horiz-adv-x="409" 
d="M25 -169l18 110q29 -9 55 -9q18 0 30 12t18 40l4 18h-16l-126 548h136l59 -369h3l59 369h135l-117 -554q-20 -97 -60.5 -138t-110.5 -41q-48 0 -87 14zM324 732q0 -70 -29.5 -103.5t-89.5 -33.5q-59 0 -89 32t-30 105l91 1q0 -62 28 -62q29 0 29 62z" />
    <glyph glyph-name="uni045F" unicode="&#x45f;" horiz-adv-x="424" 
d="M248 550h133v-550h-103v-121h-132v121h-103v550h133v-435h72v435z" />
    <glyph glyph-name="uni0474" unicode="&#x474;" horiz-adv-x="448" 
d="M124 0l-116 700h136l67 -501h5l45 346q20 165 170 165v-137q-34 0 -42 -48l-86 -525h-179z" />
    <glyph glyph-name="uni0474" unicode="&#x475;" horiz-adv-x="448" 
d="M124 0l-116 700h136l67 -501h5l45 346q20 165 170 165v-137q-34 0 -42 -48l-86 -525h-179z" />
    <glyph glyph-name="uni0490" unicode="&#x490;" horiz-adv-x="348" 
d="M210 800h129v-100h-1v-125h-146v-575h-144v700h162v100z" />
    <glyph glyph-name="uni0491" unicode="&#x491;" horiz-adv-x="286" 
d="M162 549v96h116v-214h-102v-432h-133v550h119z" />
    <glyph glyph-name="uni04D9" unicode="&#x4d9;" horiz-adv-x="390" 
d="M314 485.5q51 -75.5 51 -212.5q0 -132 -45 -208t-133 -76q-79 0 -121.5 67.5t-42.5 193.5q0 21 7 68h203q-4 64 -21 94.5t-48 30.5q-49 0 -91 -27l-23 112q24 15 57.5 24t67.5 9q88 0 139 -75.5zM234 227h-83q2 -124 39 -124q39 0 44 124z" />
    <glyph glyph-name="uni1E0C" unicode="&#x1e0c;" horiz-adv-x="477" 
d="M48 0v700h164q114 0 174 -89.5t60 -259.5q0 -171 -60 -261t-174 -90h-164zM205 127q49 0 71 54t22 169t-22 169t-71 54h-19v-446h19zM141 -170v124h127v-124h-127z" />
    <glyph glyph-name="uni1E0D" unicode="&#x1e0d;" horiz-adv-x="434" 
d="M24 277q0 284 137 284q59 0 95 -54v231h133v-738h-133v42q-36 -54 -96 -54q-136 0 -136 289zM242.5 153.5q13.5 43.5 13.5 114.5q0 86 -12 128.5t-38 42.5q-21 0 -33 -37t-12 -125q0 -92 12 -129.5t33 -37.5q23 0 36.5 43.5zM153 -170v124h127v-124h-127z" />
    <glyph glyph-name="uni1E0E" unicode="&#x1e0e;" horiz-adv-x="477" 
d="M48 0v700h164q114 0 174 -89.5t60 -259.5q0 -171 -60 -261t-174 -90h-164zM205 127q49 0 71 54t22 169t-22 169t-71 54h-19v-446h19zM325 -140h-240v84h240v-84z" />
    <glyph glyph-name="uni1E0F" unicode="&#x1e0f;" horiz-adv-x="434" 
d="M24 277q0 284 137 284q59 0 95 -54v231h133v-738h-133v42q-36 -54 -96 -54q-136 0 -136 289zM242.5 153.5q13.5 43.5 13.5 114.5q0 86 -12 128.5t-38 42.5q-21 0 -33 -37t-12 -125q0 -92 12 -129.5t33 -37.5q23 0 36.5 43.5zM337 -140h-240v84h240v-84z" />
    <glyph glyph-name="uni1E20" unicode="&#x1e20;" horiz-adv-x="439" 
d="M247 382h163v-332q-40 -31 -76.5 -46.5t-90.5 -15.5q-213 0 -213 361q0 182 59 272.5t171 90.5q60 0 117 -23l-21 -133q-18 9 -43 15.5t-41 6.5q-36 0 -56.5 -22.5t-29 -71.5t-8.5 -135q0 -118 16 -174.5t54 -56.5q20 0 35 10v137h-36v117zM378 752h-240v84h240v-84z" />
    <glyph glyph-name="uni1E21" unicode="&#x1e21;" horiz-adv-x="385" 
d="M224 141q75 0 117 -37.5t42 -108.5q0 -80 -52 -128.5t-146 -48.5q-75 0 -116.5 36t-41.5 105q0 53 47 97q-44 23 -44 88q0 26 12.5 50.5t32.5 42.5q-45 50 -45 141q0 84 43.5 133.5t121.5 49.5q46 0 74 -17l82 39l33 -91l-48 -22q25 -41 25 -92q0 -87 -42.5 -137.5
t-122.5 -50.5q-18 0 -36 3q-11 -16 -11 -28q0 -24 35 -24h40zM169 437.5q-9 -20.5 -9 -58.5q0 -40 9 -62.5t26 -22.5q18 0 27 22t9 62q0 37 -9 58.5t-27 21.5q-17 0 -26 -20.5zM233.5 -56.5q13.5 17.5 13.5 44.5q0 54 -51 54h-28q-19 -27 -19 -59q0 -31 12 -44t35 -13
q24 0 37.5 17.5zM313 618h-240v84h240v-84z" />
    <glyph glyph-name="uni1E24" unicode="&#x1e24;" horiz-adv-x="488" 
d="M296 412v288h145v-700h-145v286h-105v-286h-143v700h143v-288h105zM180 -170v124h127v-124h-127z" />
    <glyph glyph-name="uni1E25" unicode="&#x1e25;" horiz-adv-x="426" 
d="M358 519q27 -42 27 -131v-388h-133v381q0 56 -28 56q-20 0 -33 -26t-13 -82v-329h-133v738h133v-237q36 60 98 60q55 0 82 -42zM150 -170v124h127v-124h-127z" />
    <glyph glyph-name="uni1E2A" unicode="&#x1e2a;" horiz-adv-x="488" 
d="M296 412v288h145v-700h-145v286h-105v-286h-143v700h143v-288h105zM344 -34q0 -55 -25.5 -81t-77.5 -26q-51 0 -77 25t-26 82l78 1q0 -49 25 -49t25 49z" />
    <glyph glyph-name="uni1E2B" unicode="&#x1e2b;" horiz-adv-x="426" 
d="M358 519q27 -42 27 -131v-388h-133v381q0 56 -28 56q-20 0 -33 -26t-13 -82v-329h-133v738h133v-237q36 60 98 60q55 0 82 -42zM314 -34q0 -55 -25.5 -81t-77.5 -26q-51 0 -77 25t-26 82l78 1q0 -49 25 -49t25 49z" />
    <glyph glyph-name="uni1E36" unicode="&#x1e36;" horiz-adv-x="348" 
d="M338 0h-290v700h144v-575h146v-125zM115 -170v124h127v-124h-127z" />
    <glyph glyph-name="uni1E37" unicode="&#x1e37;" horiz-adv-x="223" 
d="M178 0h-133v738h133v-738zM52 -170v124h127v-124h-127z" />
    <glyph glyph-name="uni1E38" unicode="&#x1e38;" horiz-adv-x="348" 
d="M338 0h-290v700h144v-575h146v-125zM115 -170v124h127v-124h-127zM244 752h-240v84h240v-84z" />
    <glyph glyph-name="uni1E39" unicode="&#x1e39;" horiz-adv-x="223" 
d="M178 0h-133v738h133v-738zM52 -170v124h127v-124h-127zM235 790h-240v84h240v-84z" />
    <glyph glyph-name="uni1E3A" unicode="&#x1e3a;" horiz-adv-x="348" 
d="M338 0h-290v700h144v-575h146v-125zM298 -140h-240v84h240v-84z" />
    <glyph glyph-name="uni1E3B" unicode="&#x1e3b;" horiz-adv-x="223" 
d="M178 0h-133v738h133v-738zM235 -140h-240v84h240v-84z" />
    <glyph glyph-name="uni1E42" unicode="&#x1e42;" horiz-adv-x="555" 
d="M362 700h132l25 -700h-128l-13 348l-77 -347h-47l-77 347l-13 -348h-128l24 700h130l87 -362zM215 -170v124h127v-124h-127z" />
    <glyph glyph-name="uni1E43" unicode="&#x1e43;" horiz-adv-x="621" 
d="M553 521.5q27 -39.5 27 -128.5v-393h-133v382q0 55 -27 55q-19 0 -30.5 -24.5t-11.5 -78.5v-334h-133v382q0 31 -7.5 43t-20.5 12q-18 0 -29.5 -24.5t-11.5 -78.5v-334h-133v549h133v-36q35 48 91 48q75 0 98 -69q17 32 43.5 50.5t60.5 18.5q57 0 84 -39.5zM246 -170v124
h127v-124h-127z" />
    <glyph glyph-name="uni1E44" unicode="&#x1e44;" horiz-adv-x="476" 
d="M180 0h-132v700h123l125 -360v360h132v-700h-118l-130 373v-373zM301 742h-138v119h138v-119z" />
    <glyph glyph-name="uni1E45" unicode="&#x1e45;" horiz-adv-x="424" 
d="M356 519q27 -42 27 -131v-388h-133v381q0 56 -29 56q-12 0 -24.5 -14.5t-20.5 -39.5v-383h-133v549h133v-55q17 31 42 49t55 18q56 0 83 -42zM277 606h-138v124h138v-124z" />
    <glyph glyph-name="uni1E46" unicode="&#x1e46;" horiz-adv-x="476" 
d="M180 0h-132v700h123l125 -360v360h132v-700h-118l-130 373v-373zM175 -170v124h127v-124h-127z" />
    <glyph glyph-name="uni1E47" unicode="&#x1e47;" horiz-adv-x="424" 
d="M356 519q27 -42 27 -131v-388h-133v381q0 56 -29 56q-12 0 -24.5 -14.5t-20.5 -39.5v-383h-133v549h133v-55q17 31 42 49t55 18q56 0 83 -42zM152 -170v124h127v-124h-127z" />
    <glyph glyph-name="uni1E48" unicode="&#x1e48;" horiz-adv-x="476" 
d="M180 0h-132v700h123l125 -360v360h132v-700h-118l-130 373v-373zM359 -140h-240v84h240v-84z" />
    <glyph glyph-name="uni1E49" unicode="&#x1e49;" horiz-adv-x="424" 
d="M356 519q27 -42 27 -131v-388h-133v381q0 56 -29 56q-12 0 -24.5 -14.5t-20.5 -39.5v-383h-133v549h133v-55q17 31 42 49t55 18q56 0 83 -42zM335 -140h-240v84h240v-84z" />
    <glyph glyph-name="uni1E5A" unicode="&#x1e5a;" horiz-adv-x="439" 
d="M279 0l-73 226h-20v-226h-138v700h159q97 0 153 -61t56 -175q0 -68 -21.5 -120t-62.5 -82l92 -262h-145zM186 578v-230h18q34 0 53.5 30t19.5 86q0 52 -19 83t-54 31h-18zM162 -170v124h127v-124h-127z" />
    <glyph glyph-name="uni1E5B" unicode="&#x1e5b;" horiz-adv-x="279" 
d="M259.5 555.5q8.5 -1.5 12.5 -3.5l-9 -148q-15 7 -36 7q-51 0 -51 -137v-274h-133v549h133v-47q26 55 70 55q5 0 13.5 -1.5zM47 -170v124h127v-124h-127z" />
    <glyph glyph-name="uni1E5C" unicode="&#x1e5c;" horiz-adv-x="439" 
d="M279 0l-73 226h-20v-226h-138v700h159q97 0 153 -61t56 -175q0 -68 -21.5 -120t-62.5 -82l92 -262h-145zM186 578v-230h18q34 0 53.5 30t19.5 86q0 52 -19 83t-54 31h-18zM162 -170v124h127v-124h-127zM344 752h-240v84h240v-84z" />
    <glyph glyph-name="uni1E5D" unicode="&#x1e5d;" horiz-adv-x="279" 
d="M259.5 555.5q8.5 -1.5 12.5 -3.5l-9 -148q-15 7 -36 7q-51 0 -51 -137v-274h-133v549h133v-47q26 55 70 55q5 0 13.5 -1.5zM47 -170v124h127v-124h-127zM262 614h-240v84h240v-84z" />
    <glyph glyph-name="uni1E5E" unicode="&#x1e5e;" horiz-adv-x="439" 
d="M279 0l-73 226h-20v-226h-138v700h159q97 0 153 -61t56 -175q0 -68 -21.5 -120t-62.5 -82l92 -262h-145zM186 578v-230h18q34 0 53.5 30t19.5 86q0 52 -19 83t-54 31h-18zM346 -140h-240v84h240v-84z" />
    <glyph glyph-name="uni1E5F" unicode="&#x1e5f;" horiz-adv-x="279" 
d="M259.5 555.5q8.5 -1.5 12.5 -3.5l-9 -148q-15 7 -36 7q-51 0 -51 -137v-274h-133v549h133v-47q26 55 70 55q5 0 13.5 -1.5zM230 -140h-240v84h240v-84z" />
    <glyph glyph-name="uni1E60" unicode="&#x1e60;" horiz-adv-x="358" 
d="M19 17l19 129q52 -30 92 -30q31 0 47.5 17.5t16.5 52.5q0 25 -16.5 51t-51.5 68q-49 58 -77 107t-28 107q0 91 47 142t129 51q58 0 128 -27l-19 -129q-47 25 -81 25q-27 0 -42.5 -16.5t-15.5 -47.5q0 -27 16.5 -53t52.5 -69q49 -57 76 -106t27 -112q0 -86 -49.5 -138
t-131.5 -52q-70 0 -139 30zM260 742h-138v119h138v-119z" />
    <glyph glyph-name="uni1E61" unicode="&#x1e61;" horiz-adv-x="322" 
d="M17 10l18 121q19 -10 44.5 -16.5t46.5 -6.5q19 0 30 11.5t11 32.5q0 20 -15 39t-48 47q-39 35 -61 71t-22 90q0 78 44 120t113 42q50 0 108 -21l-19 -120q-43 22 -74 22q-19 0 -29.5 -11.5t-10.5 -31.5q0 -23 14 -41t43 -44q45 -40 68 -79.5t23 -89.5q0 -72 -42.5 -114
t-116.5 -42q-57 0 -125 21zM225 606h-138v124h138v-124z" />
    <glyph glyph-name="uni1E62" unicode="&#x1e62;" horiz-adv-x="358" 
d="M19 17l19 129q52 -30 92 -30q31 0 47.5 17.5t16.5 52.5q0 25 -16.5 51t-51.5 68q-49 58 -77 107t-28 107q0 91 47 142t129 51q58 0 128 -27l-19 -129q-47 25 -81 25q-27 0 -42.5 -16.5t-15.5 -47.5q0 -27 16.5 -53t52.5 -69q49 -57 76 -106t27 -112q0 -86 -49.5 -138
t-131.5 -52q-70 0 -139 30zM113 -170v124h127v-124h-127z" />
    <glyph glyph-name="uni1E63" unicode="&#x1e63;" horiz-adv-x="322" 
d="M17 10l18 121q19 -10 44.5 -16.5t46.5 -6.5q19 0 30 11.5t11 32.5q0 20 -15 39t-48 47q-39 35 -61 71t-22 90q0 78 44 120t113 42q50 0 108 -21l-19 -120q-43 22 -74 22q-19 0 -29.5 -11.5t-10.5 -31.5q0 -23 14 -41t43 -44q45 -40 68 -79.5t23 -89.5q0 -72 -42.5 -114
t-116.5 -42q-57 0 -125 21zM100 -170v124h127v-124h-127z" />
    <glyph glyph-name="uni1E6C" unicode="&#x1e6c;" horiz-adv-x="361" 
d="M10 700h341v-127h-102v-573h-138v573h-101v127zM118 -170v124h127v-124h-127z" />
    <glyph glyph-name="uni1E6D" unicode="&#x1e6d;" horiz-adv-x="308" 
d="M92 27.5q-33 39.5 -33 121.5v284h-41v65l119 169h55v-118h94v-116h-94v-274q0 -24 7.5 -35.5t25.5 -11.5q20 0 47 10l20 -116q-57 -18 -102 -18q-65 0 -98 39.5zM83 -172v124h127v-124h-127z" />
    <glyph glyph-name="uni1E6E" unicode="&#x1e6e;" horiz-adv-x="361" 
d="M10 700h341v-127h-102v-573h-138v573h-101v127zM302 -140h-240v84h240v-84z" />
    <glyph glyph-name="uni1E6F" unicode="&#x1e6f;" horiz-adv-x="308" 
d="M92 27.5q-33 39.5 -33 121.5v284h-41v65l119 169h55v-118h94v-116h-94v-274q0 -24 7.5 -35.5t25.5 -11.5q20 0 47 10l20 -116q-57 -18 -102 -18q-65 0 -98 39.5zM267 -142h-240v84h240v-84z" />
    <glyph glyph-name="Wgrave" unicode="&#x1e80;" horiz-adv-x="629" 
d="M426 204l57 496h138l-110 -700h-153l-43 363l-45 -363h-151l-111 700h142l55 -496l58 496h104zM369 747l-98 -6l-89 105l120 27z" />
    <glyph glyph-name="wgrave" unicode="&#x1e81;" horiz-adv-x="582" 
d="M389 181l46 368h137l-103 -549h-133l-45 301l-45 -301h-132l-104 549h137l47 -368l52 368h91zM338 611l-82 -7l-86 131l113 18z" />
    <glyph glyph-name="Wacute" unicode="&#x1e82;" horiz-adv-x="629" 
d="M426 204l57 496h138l-110 -700h-153l-43 363l-45 -363h-151l-111 700h142l55 -496l58 496h104zM449 847l-89 -106l-98 7l67 125z" />
    <glyph glyph-name="wacute" unicode="&#x1e83;" horiz-adv-x="582" 
d="M389 181l46 368h137l-103 -549h-133l-45 301l-45 -301h-132l-104 549h137l47 -368l52 368h91zM414 734l-86 -131l-82 7l55 142z" />
    <glyph glyph-name="Wdieresis" unicode="&#x1e84;" horiz-adv-x="629" 
d="M426 204l57 496h138l-110 -700h-153l-43 363l-45 -363h-151l-111 700h142l55 -496l58 496h104zM295 741h-109v119h109v-119zM437 741h-109v119h109v-119z" />
    <glyph glyph-name="wdieresis" unicode="&#x1e85;" horiz-adv-x="582" 
d="M389 181l46 368h137l-103 -549h-133l-45 301l-45 -301h-132l-104 549h137l47 -368l52 368h91zM274 605h-95v124h95v-124zM412 605h-94v124h94v-124z" />
    <glyph glyph-name="uni1E8E" unicode="&#x1e8e;" horiz-adv-x="395" 
d="M249 700h143l-126 -504v-196h-138v196l-125 504h143l52 -318zM260 742h-138v119h138v-119z" />
    <glyph glyph-name="uni1E8F" unicode="&#x1e8f;" horiz-adv-x="409" 
d="M206 165l59 384h135l-119 -549l-36 -171h-135l32 157l-9 -1l-125 564h136l59 -384h3zM267 605h-138v124h138v-124z" />
    <glyph glyph-name="uni1E92" unicode="&#x1e92;" horiz-adv-x="357" 
d="M337 0h-317v90l157 483h-152v127h309v-90l-156 -483h159v-127zM116 -170v124h127v-124h-127z" />
    <glyph glyph-name="uni1E93" unicode="&#x1e93;" horiz-adv-x="344" 
d="M326 0h-305v84l143 347h-138v118h297v-83l-142 -347h145v-119zM114 -170v124h127v-124h-127z" />
    <glyph glyph-name="uni1E97" unicode="&#x1e97;" horiz-adv-x="308" 
d="M92 27.5q-33 39.5 -33 121.5v284h-41v65l119 169h55v-118h94v-116h-94v-274q0 -24 7.5 -35.5t25.5 -11.5q20 0 47 10l20 -116q-57 -18 -102 -18q-65 0 -98 39.5zM124 709h-95v124h95v-124zM262 709h-94v124h94v-124z" />
    <glyph glyph-name="uni1E9E" unicode="&#x1e9e;" horiz-adv-x="496" 
d="M394 387q40 -29 61.5 -78t21.5 -108q0 -103 -45.5 -158t-134.5 -55q-39 0 -87 17l21 121q35 -15 56 -15q23 0 35 22.5t12 66.5q0 47 -22 77t-61 41l31 256q-32 14 -57 14q-23 0 -35.5 -24t-12.5 -71v-493h-138l1 503q0 102 46.5 155t139.5 53q91 0 203 -70z" />
    <glyph glyph-name="uni1EA0" unicode="&#x1ea0;" horiz-adv-x="456" 
d="M449 0h-141l-19 122h-123l-19 -122h-140l132 700h177zM227 507l-43 -272h87l-43 272h-1zM165 -170v124h127v-124h-127z" />
    <glyph glyph-name="uni1EA1" unicode="&#x1ea1;" horiz-adv-x="396" 
d="M314.5 509.5q41.5 -51.5 41.5 -152.5v-357h-132v61q-30 -73 -91 -73q-53 0 -84.5 43.5t-31.5 133.5q0 79 35.5 123.5t108.5 44.5q25 0 63 -4v30q0 46 -15 65.5t-47 19.5q-20 0 -46 -7t-45 -17l-15 114q56 27 124 27q93 0 134.5 -51.5zM212 135.5q12 31.5 12 99.5v10
q-22 2 -35 2q-21 0 -33 -17.5t-12 -54.5t10 -54t26 -17q20 0 32 31.5zM123 -170v124h127v-124h-127z" />
    <glyph glyph-name="uni1EA2" unicode="&#x1ea2;" horiz-adv-x="456" 
d="M449 0h-141l-19 122h-123l-19 -122h-140l132 700h177zM227 507l-43 -272h87l-43 272h-1zM179 781q16 8 22.5 16t6.5 19q0 10 -6 15.5t-15 5.5q-10 0 -17 -5l-13 63q32 19 67 19q33 0 54.5 -19.5t21.5 -56.5q0 -59 -70 -103z" />
    <glyph glyph-name="uni1EA3" unicode="&#x1ea3;" horiz-adv-x="396" 
d="M314.5 509.5q41.5 -51.5 41.5 -152.5v-357h-132v61q-30 -73 -91 -73q-53 0 -84.5 43.5t-31.5 133.5q0 79 35.5 123.5t108.5 44.5q25 0 63 -4v30q0 46 -15 65.5t-47 19.5q-20 0 -46 -7t-45 -17l-15 114q56 27 124 27q93 0 134.5 -51.5zM212 135.5q12 31.5 12 99.5v10
q-22 2 -35 2q-21 0 -33 -17.5t-12 -54.5t10 -54t26 -17q20 0 32 31.5zM142 632q16 8 22.5 16t6.5 19q0 10 -6 15.5t-15 5.5q-10 0 -17 -5l-13 63q32 19 67 19q33 0 54.5 -19.5t21.5 -56.5q0 -59 -70 -103z" />
    <glyph glyph-name="uni1EA4" unicode="&#x1ea4;" horiz-adv-x="456" 
d="M449 0h-141l-19 122h-123l-19 -122h-140l132 700h177zM227 507l-43 -272h87l-43 272h-1zM332 843l65 94l79 -32l-85 -81zM302 893l46 -134l-99 -7l-20 71l-19 -71l-100 7l46 134h146z" />
    <glyph glyph-name="uni1EA5" unicode="&#x1ea5;" horiz-adv-x="396" 
d="M314.5 509.5q41.5 -51.5 41.5 -152.5v-357h-132v61q-30 -73 -91 -73q-53 0 -84.5 43.5t-31.5 133.5q0 79 35.5 123.5t108.5 44.5q25 0 63 -4v30q0 46 -15 65.5t-47 19.5q-20 0 -46 -7t-45 -17l-15 114q56 27 124 27q93 0 134.5 -51.5zM212 135.5q12 31.5 12 99.5v10
q-22 2 -35 2q-21 0 -33 -17.5t-12 -54.5t10 -54t26 -17q20 0 32 31.5zM295 694l65 94l79 -32l-85 -81zM265 744l46 -134l-99 -7l-20 71l-19 -71l-100 7l46 134h146z" />
    <glyph glyph-name="uni1EA6" unicode="&#x1ea6;" horiz-adv-x="456" 
d="M449 0h-141l-19 122h-123l-19 -122h-140l132 700h177zM227 507l-43 -272h87l-43 272h-1zM300 880l46 -134l-99 -7l-20 71l-20 -71l-99 7l31 93l-58 -14l-78 88l82 25l55 -97l13 39h147z" />
    <glyph glyph-name="uni1EA7" unicode="&#x1ea7;" horiz-adv-x="396" 
d="M314.5 509.5q41.5 -51.5 41.5 -152.5v-357h-132v61q-30 -73 -91 -73q-53 0 -84.5 43.5t-31.5 133.5q0 79 35.5 123.5t108.5 44.5q25 0 63 -4v30q0 46 -15 65.5t-47 19.5q-20 0 -46 -7t-45 -17l-15 114q56 27 124 27q93 0 134.5 -51.5zM212 135.5q12 31.5 12 99.5v10
q-22 2 -35 2q-21 0 -33 -17.5t-12 -54.5t10 -54t26 -17q20 0 32 31.5zM265 744l46 -134l-99 -7l-20 71l-20 -71l-99 7l31 93l-58 -14l-78 88l82 25l55 -97l13 39h147z" />
    <glyph glyph-name="uni1EA8" unicode="&#x1ea8;" horiz-adv-x="456" 
d="M449 0h-141l-19 122h-123l-19 -122h-140l132 700h177zM227 507l-43 -272h87l-43 272h-1zM324 931q25 15 52 15q26 0 42.5 -15t16.5 -44q0 -45 -54 -79l-39 35q12 6 17 12t5 15q0 8 -5 12.5t-12 4.5q-8 0 -13 -4zM301 893l46 -134l-99 -7l-20 71l-19 -71l-100 7l46 134
h146z" />
    <glyph glyph-name="uni1EA9" unicode="&#x1ea9;" horiz-adv-x="396" 
d="M314.5 509.5q41.5 -51.5 41.5 -152.5v-357h-132v61q-30 -73 -91 -73q-53 0 -84.5 43.5t-31.5 133.5q0 79 35.5 123.5t108.5 44.5q25 0 63 -4v30q0 46 -15 65.5t-47 19.5q-20 0 -46 -7t-45 -17l-15 114q56 27 124 27q93 0 134.5 -51.5zM212 135.5q12 31.5 12 99.5v10
q-22 2 -35 2q-21 0 -33 -17.5t-12 -54.5t10 -54t26 -17q20 0 32 31.5zM288 782q25 15 52 15q26 0 42.5 -15t16.5 -44q0 -45 -54 -79l-39 35q12 6 17 12t5 15q0 8 -5 12.5t-12 4.5q-8 0 -13 -4zM265 744l46 -134l-99 -7l-20 71l-19 -71l-100 7l46 134h146z" />
    <glyph glyph-name="uni1EAA" unicode="&#x1eaa;" horiz-adv-x="456" 
d="M449 0h-141l-19 122h-123l-19 -122h-140l132 700h177zM227 507l-43 -272h87l-43 272h-1zM125 917q-1 8 -1 22q0 44 14 66.5t42 22.5q25 0 50 -17q16 -9 23 -9q8 0 11.5 7t2.5 20l66 -10q3 -54 -10.5 -82.5t-42.5 -28.5q-24 0 -52 17q-14 9 -23 9q-7 0 -10.5 -7t-2.5 -21z
M301 889l46 -133l-99 -8l-20 71l-19 -71l-100 8l46 133h146z" />
    <glyph glyph-name="uni1EAB" unicode="&#x1eab;" horiz-adv-x="396" 
d="M314.5 509.5q41.5 -51.5 41.5 -152.5v-357h-132v61q-30 -73 -91 -73q-53 0 -84.5 43.5t-31.5 133.5q0 79 35.5 123.5t108.5 44.5q25 0 63 -4v30q0 46 -15 65.5t-47 19.5q-20 0 -46 -7t-45 -17l-15 114q56 27 124 27q93 0 134.5 -51.5zM212 135.5q12 31.5 12 99.5v10
q-22 2 -35 2q-21 0 -33 -17.5t-12 -54.5t10 -54t26 -17q20 0 32 31.5zM88 769q-1 8 -1 22q0 44 14 66.5t42 22.5q25 0 50 -17q16 -9 23 -9q8 0 11.5 7t2.5 20l66 -10q3 -54 -10.5 -82.5t-42.5 -28.5q-24 0 -52 17q-14 9 -23 9q-7 0 -10.5 -7t-2.5 -21zM264 741l46 -133
l-99 -8l-20 71l-19 -71l-100 8l46 133h146z" />
    <glyph glyph-name="uni1EAC" unicode="&#x1eac;" horiz-adv-x="456" 
d="M449 0h-141l-19 122h-123l-19 -122h-140l132 700h177zM227 507l-43 -272h87l-43 272h-1zM165 -170v124h127v-124h-127zM306 871l48 -122l-104 -7l-21 65l-21 -65l-105 7l49 122h154z" />
    <glyph glyph-name="uni1EAD" unicode="&#x1ead;" horiz-adv-x="396" 
d="M314.5 509.5q41.5 -51.5 41.5 -152.5v-357h-132v61q-30 -73 -91 -73q-53 0 -84.5 43.5t-31.5 133.5q0 79 35.5 123.5t108.5 44.5q25 0 63 -4v30q0 46 -15 65.5t-47 19.5q-20 0 -46 -7t-45 -17l-15 114q56 27 124 27q93 0 134.5 -51.5zM212 135.5q12 31.5 12 99.5v10
q-22 2 -35 2q-21 0 -33 -17.5t-12 -54.5t10 -54t26 -17q20 0 32 31.5zM123 -170v124h127v-124h-127zM265 745l46 -134l-99 -7l-20 71l-19 -71l-100 7l46 134h146z" />
    <glyph glyph-name="uni1EAE" unicode="&#x1eae;" horiz-adv-x="456" 
d="M449 0h-141l-19 122h-123l-19 -122h-140l132 700h177zM227 507l-43 -272h87l-43 272h-1zM238 993l90 -16l-70 -104l-65 7zM347 863q0 -70 -29.5 -103.5t-89.5 -33.5q-59 0 -89 32t-30 105l91 1q0 -62 28 -62q29 0 29 62z" />
    <glyph glyph-name="uni1EAF" unicode="&#x1eaf;" horiz-adv-x="396" 
d="M314.5 509.5q41.5 -51.5 41.5 -152.5v-357h-132v61q-30 -73 -91 -73q-53 0 -84.5 43.5t-31.5 133.5q0 79 35.5 123.5t108.5 44.5q25 0 63 -4v30q0 46 -15 65.5t-47 19.5q-20 0 -46 -7t-45 -17l-15 114q56 27 124 27q93 0 134.5 -51.5zM212 135.5q12 31.5 12 99.5v10
q-22 2 -35 2q-21 0 -33 -17.5t-12 -54.5t10 -54t26 -17q20 0 32 31.5zM201 864l90 -16l-70 -104l-65 7zM310 734q0 -70 -29.5 -103.5t-89.5 -33.5q-59 0 -89 32t-30 105l91 1q0 -62 28 -62q29 0 29 62z" />
    <glyph glyph-name="uni1EB0" unicode="&#x1eb0;" horiz-adv-x="456" 
d="M449 0h-141l-19 122h-123l-19 -122h-140l132 700h177zM227 507l-43 -272h87l-43 272h-1zM264 880l-66 -7l-70 104l90 15zM139.5 761.5q-30.5 34.5 -30.5 96.5l90 1q0 -56 29 -56q28 0 28 56l91 -1q0 -64 -31 -97.5t-88 -33.5q-58 0 -88.5 34.5z" />
    <glyph glyph-name="uni1EB1" unicode="&#x1eb1;" horiz-adv-x="396" 
d="M314.5 509.5q41.5 -51.5 41.5 -152.5v-357h-132v61q-30 -73 -91 -73q-53 0 -84.5 43.5t-31.5 133.5q0 79 35.5 123.5t108.5 44.5q25 0 63 -4v30q0 46 -15 65.5t-47 19.5q-20 0 -46 -7t-45 -17l-15 114q56 27 124 27q93 0 134.5 -51.5zM212 135.5q12 31.5 12 99.5v10
q-22 2 -35 2q-21 0 -33 -17.5t-12 -54.5t10 -54t26 -17q20 0 32 31.5zM161 745l-70 103l90 15l46 -112zM162 730q0 -56 29 -56q28 0 28 56l91 -1q0 -64 -31 -97.5t-88 -33.5q-58 0 -88.5 34.5t-30.5 96.5z" />
    <glyph glyph-name="uni1EB2" unicode="&#x1eb2;" horiz-adv-x="456" 
d="M449 0h-141l-19 122h-123l-19 -122h-140l132 700h177zM227 507l-43 -272h87l-43 272h-1zM347 882q0 -70 -29.5 -103.5t-89.5 -33.5q-59 0 -89 32t-30 105l86 1l-9 8q14 7 19.5 14t5.5 17q0 9 -5 14t-13 5q-7 0 -15 -5l-11 55q29 17 58 17t48 -17.5t19 -49.5t-23 -58z
M257 871q-8 -7 -26 -19l-31 27q1 -58 28 -58q26 0 29 50z" />
    <glyph glyph-name="uni1EB3" unicode="&#x1eb3;" horiz-adv-x="396" 
d="M314.5 509.5q41.5 -51.5 41.5 -152.5v-357h-132v61q-30 -73 -91 -73q-53 0 -84.5 43.5t-31.5 133.5q0 79 35.5 123.5t108.5 44.5q25 0 63 -4v30q0 46 -15 65.5t-47 19.5q-20 0 -46 -7t-45 -17l-15 114q56 27 124 27q93 0 134.5 -51.5zM212 135.5q12 31.5 12 99.5v10
q-22 2 -35 2q-21 0 -33 -17.5t-12 -54.5t10 -54t26 -17q20 0 32 31.5zM310 734q0 -70 -29.5 -103.5t-89.5 -33.5q-59 0 -89 32t-30 105l86 1l-9 8q14 7 19.5 14t5.5 17q0 9 -5 14t-13 5q-7 0 -15 -5l-11 55q29 17 58 17t48 -17.5t19 -49.5t-23 -58zM220 723q-8 -7 -26 -19
l-31 27q1 -58 28 -58q26 0 29 50z" />
    <glyph glyph-name="uni1EB4" unicode="&#x1eb4;" horiz-adv-x="456" 
d="M449 0h-141l-19 122h-123l-19 -122h-140l132 700h177zM227 507l-43 -272h87l-43 272h-1zM123 904q-1 6 -1 18q0 78 57 78q14 0 25 -3.5t26 -10.5q13 -8 21 -8q18 0 15 23l66 -9q1 -7 1 -19q0 -37 -14 -57t-40 -20q-15 0 -26 3.5t-26 10.5q-16 8 -23 8q-16 0 -13 -24z
M347 882q0 -70 -29.5 -103.5t-89.5 -33.5q-59 0 -89 32t-30 105l91 1q0 -62 28 -62q29 0 29 62z" />
    <glyph glyph-name="uni1EB5" unicode="&#x1eb5;" horiz-adv-x="396" 
d="M314.5 509.5q41.5 -51.5 41.5 -152.5v-357h-132v61q-30 -73 -91 -73q-53 0 -84.5 43.5t-31.5 133.5q0 79 35.5 123.5t108.5 44.5q25 0 63 -4v30q0 46 -15 65.5t-47 19.5q-20 0 -46 -7t-45 -17l-15 114q56 27 124 27q93 0 134.5 -51.5zM212 135.5q12 31.5 12 99.5v10
q-22 2 -35 2q-21 0 -33 -17.5t-12 -54.5t10 -54t26 -17q20 0 32 31.5zM87 756q-1 6 -1 18q0 78 57 78q14 0 25 -3.5t26 -10.5q13 -8 21 -8q18 0 15 23l66 -9q1 -7 1 -19q0 -37 -14 -57t-40 -20q-15 0 -26 3.5t-26 10.5q-16 8 -23 8q-16 0 -13 -24zM311 734
q0 -70 -29.5 -103.5t-89.5 -33.5q-59 0 -89 32t-30 105l91 1q0 -62 28 -62q29 0 29 62z" />
    <glyph glyph-name="uni1EB6" unicode="&#x1eb6;" horiz-adv-x="456" 
d="M449 0h-141l-19 122h-123l-19 -122h-140l132 700h177zM227 507l-43 -272h87l-43 272h-1zM165 -170v124h127v-124h-127zM346 867q0 -70 -29.5 -103.5t-89.5 -33.5q-59 0 -89 32t-30 105l91 1q0 -62 28 -62q29 0 29 62z" />
    <glyph glyph-name="uni1EB7" unicode="&#x1eb7;" horiz-adv-x="396" 
d="M314.5 509.5q41.5 -51.5 41.5 -152.5v-357h-132v61q-30 -73 -91 -73q-53 0 -84.5 43.5t-31.5 133.5q0 79 35.5 123.5t108.5 44.5q25 0 63 -4v30q0 46 -15 65.5t-47 19.5q-20 0 -46 -7t-45 -17l-15 114q56 27 124 27q93 0 134.5 -51.5zM212 135.5q12 31.5 12 99.5v10
q-22 2 -35 2q-21 0 -33 -17.5t-12 -54.5t10 -54t26 -17q20 0 32 31.5zM123 -170v124h127v-124h-127zM311 734q0 -70 -29.5 -103.5t-89.5 -33.5q-59 0 -89 32t-30 105l91 1q0 -62 28 -62q29 0 29 62z" />
    <glyph glyph-name="uni1EB8" unicode="&#x1eb8;" horiz-adv-x="380" 
d="M186 296v-171h169v-125h-307v700h303v-125h-165v-158h140v-121h-140zM139 -170v124h127v-124h-127z" />
    <glyph glyph-name="uni1EB9" unicode="&#x1eb9;" horiz-adv-x="392" 
d="M158 231q5 -64 20.5 -94t46.5 -30q53 0 93 26l21 -112q-24 -15 -59.5 -23.5t-69.5 -8.5q-91 0 -138.5 74t-47.5 213q0 133 46 208.5t136 75.5q77 0 120 -63t43 -170q0 -42 -14 -96h-197zM243 322q2 59 -8.5 90t-32.5 31q-21 0 -31.5 -29.5t-12.5 -91.5h85zM145 -173v124
h127v-124h-127z" />
    <glyph glyph-name="uni1EBA" unicode="&#x1eba;" horiz-adv-x="380" 
d="M186 296v-171h169v-125h-307v700h303v-125h-165v-158h140v-121h-140zM153 781q16 8 22.5 16t6.5 19q0 10 -6 15.5t-15 5.5q-10 0 -17 -5l-13 63q32 19 67 19q33 0 54.5 -19.5t21.5 -56.5q0 -59 -70 -103z" />
    <glyph glyph-name="uni1EBB" unicode="&#x1ebb;" horiz-adv-x="392" 
d="M158 231q5 -64 20.5 -94t46.5 -30q53 0 93 26l21 -112q-24 -15 -59.5 -23.5t-69.5 -8.5q-91 0 -138.5 74t-47.5 213q0 133 46 208.5t136 75.5q77 0 120 -63t43 -170q0 -42 -14 -96h-197zM243 322q2 59 -8.5 90t-32.5 31q-21 0 -31.5 -29.5t-12.5 -91.5h85zM155 630
q16 8 22.5 16t6.5 19q0 10 -6 15.5t-15 5.5q-10 0 -17 -5l-13 63q32 19 67 19q33 0 54.5 -19.5t21.5 -56.5q0 -59 -70 -103z" />
    <glyph glyph-name="uni1EBC" unicode="&#x1ebc;" horiz-adv-x="380" 
d="M186 296v-171h169v-125h-307v700h303v-125h-165v-158h140v-121h-140zM98 753q-1 8 -1 22q0 90 56 90q23 0 51 -17q14 -9 21 -9q16 0 15 27l65 -10q3 -55 -10.5 -83.5t-42.5 -28.5q-15 0 -26.5 4.5t-24.5 12.5q-14 9 -23 9q-8 0 -11 -7.5t-2 -20.5z" />
    <glyph glyph-name="uni1EBD" unicode="&#x1ebd;" horiz-adv-x="392" 
d="M158 231q5 -64 20.5 -94t46.5 -30q53 0 93 26l21 -112q-24 -15 -59.5 -23.5t-69.5 -8.5q-91 0 -138.5 74t-47.5 213q0 133 46 208.5t136 75.5q77 0 120 -63t43 -170q0 -42 -14 -96h-197zM243 322q2 59 -8.5 90t-32.5 31q-21 0 -31.5 -29.5t-12.5 -91.5h85zM101 619
q-1 8 -1 22q0 90 56 90q23 0 51 -17q14 -9 21 -9q16 0 15 27l65 -10q3 -55 -10.5 -83.5t-42.5 -28.5q-15 0 -26.5 4.5t-24.5 12.5q-14 9 -23 9q-8 0 -11 -7.5t-2 -20.5z" />
    <glyph glyph-name="uni1EBE" unicode="&#x1ebe;" horiz-adv-x="380" 
d="M186 296v-171h169v-125h-307v700h303v-125h-165v-158h140v-121h-140zM306 843l65 94l79 -32l-85 -81zM276 893l46 -134l-99 -7l-20 71l-19 -71l-100 7l46 134h146z" />
    <glyph glyph-name="uni1EBF" unicode="&#x1ebf;" horiz-adv-x="392" 
d="M158 231q5 -64 20.5 -94t46.5 -30q53 0 93 26l21 -112q-24 -15 -59.5 -23.5t-69.5 -8.5q-91 0 -138.5 74t-47.5 213q0 133 46 208.5t136 75.5q77 0 120 -63t43 -170q0 -42 -14 -96h-197zM243 322q2 59 -8.5 90t-32.5 31q-21 0 -31.5 -29.5t-12.5 -91.5h85zM307 693l65 94
l79 -32l-85 -81zM277 743l46 -134l-99 -7l-20 71l-19 -71l-100 7l46 134h146z" />
    <glyph glyph-name="uni1EC0" unicode="&#x1ec0;" horiz-adv-x="380" 
d="M186 296v-171h169v-125h-307v700h303v-125h-165v-158h140v-121h-140zM274 880l46 -134l-99 -7l-20 71l-20 -71l-99 7l31 93l-58 -14l-78 88l82 25l55 -97l13 39h147z" />
    <glyph glyph-name="uni1EC1" unicode="&#x1ec1;" horiz-adv-x="392" 
d="M158 231q5 -64 20.5 -94t46.5 -30q53 0 93 26l21 -112q-24 -15 -59.5 -23.5t-69.5 -8.5q-91 0 -138.5 74t-47.5 213q0 133 46 208.5t136 75.5q77 0 120 -63t43 -170q0 -42 -14 -96h-197zM243 322q2 59 -8.5 90t-32.5 31q-21 0 -31.5 -29.5t-12.5 -91.5h85zM278 743
l46 -134l-99 -7l-20 71l-20 -71l-99 7l31 93l-58 -14l-78 88l82 25l55 -97l13 39h147z" />
    <glyph glyph-name="uni1EC2" unicode="&#x1ec2;" horiz-adv-x="380" 
d="M186 296v-171h169v-125h-307v700h303v-125h-165v-158h140v-121h-140zM298 931q25 15 52 15q26 0 42.5 -15t16.5 -44q0 -45 -54 -79l-39 35q12 6 17 12t5 15q0 8 -5 12.5t-12 4.5q-8 0 -13 -4zM275 893l46 -134l-99 -7l-20 71l-19 -71l-100 7l46 134h146z" />
    <glyph glyph-name="uni1EC3" unicode="&#x1ec3;" horiz-adv-x="392" 
d="M158 231q5 -64 20.5 -94t46.5 -30q53 0 93 26l21 -112q-24 -15 -59.5 -23.5t-69.5 -8.5q-91 0 -138.5 74t-47.5 213q0 133 46 208.5t136 75.5q77 0 120 -63t43 -170q0 -42 -14 -96h-197zM243 322q2 59 -8.5 90t-32.5 31q-21 0 -31.5 -29.5t-12.5 -91.5h85zM300 781
q25 15 52 15q26 0 42.5 -15t16.5 -44q0 -45 -54 -79l-39 35q12 6 17 12t5 15q0 8 -5 12.5t-12 4.5q-8 0 -13 -4zM277 743l46 -134l-99 -7l-20 71l-19 -71l-100 7l46 134h146z" />
    <glyph glyph-name="uni1EC4" unicode="&#x1ec4;" horiz-adv-x="380" 
d="M186 296v-171h169v-125h-307v700h303v-125h-165v-158h140v-121h-140zM99 917q-1 8 -1 22q0 44 14 66.5t42 22.5q25 0 50 -17q16 -9 23 -9q8 0 11.5 7t2.5 20l66 -10q3 -54 -10.5 -82.5t-42.5 -28.5q-24 0 -52 17q-14 9 -23 9q-7 0 -10.5 -7t-2.5 -21zM275 889l46 -133
l-99 -8l-20 71l-19 -71l-100 8l46 133h146z" />
    <glyph glyph-name="uni1EC5" unicode="&#x1ec5;" horiz-adv-x="392" 
d="M158 231q5 -64 20.5 -94t46.5 -30q53 0 93 26l21 -112q-24 -15 -59.5 -23.5t-69.5 -8.5q-91 0 -138.5 74t-47.5 213q0 133 46 208.5t136 75.5q77 0 120 -63t43 -170q0 -42 -14 -96h-197zM243 322q2 59 -8.5 90t-32.5 31q-21 0 -31.5 -29.5t-12.5 -91.5h85zM101 767
q-1 8 -1 22q0 44 14 66.5t42 22.5q25 0 50 -17q16 -9 23 -9q8 0 11.5 7t2.5 20l66 -10q3 -54 -10.5 -82.5t-42.5 -28.5q-24 0 -52 17q-14 9 -23 9q-7 0 -10.5 -7t-2.5 -21zM277 739l46 -133l-99 -8l-20 71l-19 -71l-100 8l46 133h146z" />
    <glyph glyph-name="uni1EC6" unicode="&#x1ec6;" horiz-adv-x="380" 
d="M186 296v-171h169v-125h-307v700h303v-125h-165v-158h140v-121h-140zM139 -170v124h127v-124h-127zM279 871l48 -122l-104 -7l-21 65l-21 -65l-105 7l49 122h154z" />
    <glyph glyph-name="uni1EC7" unicode="&#x1ec7;" horiz-adv-x="392" 
d="M158 231q5 -64 20.5 -94t46.5 -30q53 0 93 26l21 -112q-24 -15 -59.5 -23.5t-69.5 -8.5q-91 0 -138.5 74t-47.5 213q0 133 46 208.5t136 75.5q77 0 120 -63t43 -170q0 -42 -14 -96h-197zM243 322q2 59 -8.5 90t-32.5 31q-21 0 -31.5 -29.5t-12.5 -91.5h85zM145 -173v124
h127v-124h-127zM277 743l46 -134l-99 -7l-20 71l-19 -71l-100 7l46 134h146z" />
    <glyph glyph-name="uni1EC8" unicode="&#x1ec8;" horiz-adv-x="234" 
d="M186 0h-138v700h138v-700zM68 781q16 8 22.5 16t6.5 19q0 10 -6 15.5t-15 5.5q-10 0 -17 -5l-13 63q32 19 67 19q33 0 54.5 -19.5t21.5 -56.5q0 -59 -70 -103z" />
    <glyph glyph-name="uni1EC9" unicode="&#x1ec9;" horiz-adv-x="219" 
d="M176 0h-133v549h133v-549zM60 630q16 8 22.5 16t6.5 19q0 10 -6 15.5t-15 5.5q-10 0 -17 -5l-13 63q32 19 67 19q33 0 54.5 -19.5t21.5 -56.5q0 -59 -70 -103z" />
    <glyph glyph-name="uni1ECA" unicode="&#x1eca;" horiz-adv-x="234" 
d="M186 0h-138v700h138v-700zM54 -170v124h127v-124h-127z" />
    <glyph glyph-name="uni1ECB" unicode="&#x1ecb;" horiz-adv-x="219" 
d="M176 0h-133v549h133v-549zM172 606h-138v124h138v-124zM46 -170v124h127v-124h-127z" />
    <glyph glyph-name="uni1ECC" unicode="&#x1ecc;" horiz-adv-x="473" 
d="M30 350q0 362 206 362q102 0 154.5 -88t52.5 -274q0 -362 -207 -362q-206 0 -206 362zM270.5 144.5q12.5 21.5 18 70.5t5.5 135t-5 134.5t-17.5 70.5t-35.5 22q-21 0 -33.5 -21.5t-18 -71t-5.5 -134.5t5 -133.5t17.5 -71t34.5 -22.5t34.5 21.5zM173 -170v124h127v-124
h-127z" />
    <glyph glyph-name="uni1ECD" unicode="&#x1ecd;" horiz-adv-x="414" 
d="M71.5 61.5q-47.5 73.5 -47.5 214.5q0 138 46.5 211.5t137.5 73.5q88 0 135.5 -72.5t47.5 -211.5q0 -140 -47 -214.5t-137 -74.5q-88 0 -135.5 73.5zM256 276q0 161 -49 161t-49 -160q0 -164 50 -164q48 0 48 163zM144 -170v124h127v-124h-127z" />
    <glyph glyph-name="uni1ECE" unicode="&#x1ece;" horiz-adv-x="473" 
d="M30 350q0 362 206 362q102 0 154.5 -88t52.5 -274q0 -362 -207 -362q-206 0 -206 362zM270.5 144.5q12.5 21.5 18 70.5t5.5 135t-5 134.5t-17.5 70.5t-35.5 22q-21 0 -33.5 -21.5t-18 -71t-5.5 -134.5t5 -133.5t17.5 -71t34.5 -22.5t34.5 21.5zM187 781q16 8 22.5 16
t6.5 19q0 10 -6 15.5t-15 5.5q-10 0 -17 -5l-13 63q32 19 67 19q33 0 54.5 -19.5t21.5 -56.5q0 -59 -70 -103z" />
    <glyph glyph-name="uni1ECF" unicode="&#x1ecf;" horiz-adv-x="414" 
d="M71.5 61.5q-47.5 73.5 -47.5 214.5q0 138 46.5 211.5t137.5 73.5q88 0 135.5 -72.5t47.5 -211.5q0 -140 -47 -214.5t-137 -74.5q-88 0 -135.5 73.5zM256 276q0 161 -49 161t-49 -160q0 -164 50 -164q48 0 48 163zM159 630q16 8 22.5 16t6.5 19q0 10 -6 15.5t-15 5.5
q-10 0 -17 -5l-13 63q32 19 67 19q33 0 54.5 -19.5t21.5 -56.5q0 -59 -70 -103z" />
    <glyph glyph-name="uni1ED0" unicode="&#x1ed0;" horiz-adv-x="473" 
d="M30 350q0 362 206 362q102 0 154.5 -88t52.5 -274q0 -362 -207 -362q-206 0 -206 362zM270.5 144.5q12.5 21.5 18 70.5t5.5 135t-5 134.5t-17.5 70.5t-35.5 22q-21 0 -33.5 -21.5t-18 -71t-5.5 -134.5t5 -133.5t17.5 -71t34.5 -22.5t34.5 21.5zM340 843l65 94l79 -32
l-85 -81zM310 893l46 -134l-99 -7l-20 71l-19 -71l-100 7l46 134h146z" />
    <glyph glyph-name="uni1ED1" unicode="&#x1ed1;" horiz-adv-x="414" 
d="M71.5 61.5q-47.5 73.5 -47.5 214.5q0 138 46.5 211.5t137.5 73.5q88 0 135.5 -72.5t47.5 -211.5q0 -140 -47 -214.5t-137 -74.5q-88 0 -135.5 73.5zM256 276q0 161 -49 161t-49 -160q0 -164 50 -164q48 0 48 163zM311 693l65 94l79 -32l-85 -81zM281 743l46 -134l-99 -7
l-20 71l-19 -71l-100 7l46 134h146z" />
    <glyph glyph-name="uni1ED2" unicode="&#x1ed2;" horiz-adv-x="473" 
d="M30 350q0 362 206 362q102 0 154.5 -88t52.5 -274q0 -362 -207 -362q-206 0 -206 362zM270.5 144.5q12.5 21.5 18 70.5t5.5 135t-5 134.5t-17.5 70.5t-35.5 22q-21 0 -33.5 -21.5t-18 -71t-5.5 -134.5t5 -133.5t17.5 -71t34.5 -22.5t34.5 21.5zM308 880l46 -134l-99 -7
l-20 71l-20 -71l-99 7l31 93l-58 -14l-78 88l82 25l55 -97l13 39h147z" />
    <glyph glyph-name="uni1ED3" unicode="&#x1ed3;" horiz-adv-x="414" 
d="M71.5 61.5q-47.5 73.5 -47.5 214.5q0 138 46.5 211.5t137.5 73.5q88 0 135.5 -72.5t47.5 -211.5q0 -140 -47 -214.5t-137 -74.5q-88 0 -135.5 73.5zM256 276q0 161 -49 161t-49 -160q0 -164 50 -164q48 0 48 163zM281 743l46 -134l-99 -7l-20 71l-20 -71l-99 7l31 93
l-58 -14l-78 88l82 25l55 -97l13 39h147z" />
    <glyph glyph-name="uni1ED4" unicode="&#x1ed4;" horiz-adv-x="473" 
d="M30 350q0 362 206 362q102 0 154.5 -88t52.5 -274q0 -362 -207 -362q-206 0 -206 362zM270.5 144.5q12.5 21.5 18 70.5t5.5 135t-5 134.5t-17.5 70.5t-35.5 22q-21 0 -33.5 -21.5t-18 -71t-5.5 -134.5t5 -133.5t17.5 -71t34.5 -22.5t34.5 21.5zM332 931q25 15 52 15
q26 0 42.5 -15t16.5 -44q0 -45 -54 -79l-39 35q12 6 17 12t5 15q0 8 -5 12.5t-12 4.5q-8 0 -13 -4zM309 893l46 -134l-99 -7l-20 71l-19 -71l-100 7l46 134h146z" />
    <glyph glyph-name="uni1ED5" unicode="&#x1ed5;" horiz-adv-x="414" 
d="M71.5 61.5q-47.5 73.5 -47.5 214.5q0 138 46.5 211.5t137.5 73.5q88 0 135.5 -72.5t47.5 -211.5q0 -140 -47 -214.5t-137 -74.5q-88 0 -135.5 73.5zM256 276q0 161 -49 161t-49 -160q0 -164 50 -164q48 0 48 163zM304 781q25 15 52 15q26 0 42.5 -15t16.5 -44
q0 -45 -54 -79l-39 35q12 6 17 12t5 15q0 8 -5 12.5t-12 4.5q-8 0 -13 -4zM281 743l46 -134l-99 -7l-20 71l-19 -71l-100 7l46 134h146z" />
    <glyph glyph-name="uni1ED6" unicode="&#x1ed6;" horiz-adv-x="473" 
d="M30 350q0 362 206 362q102 0 154.5 -88t52.5 -274q0 -362 -207 -362q-206 0 -206 362zM270.5 144.5q12.5 21.5 18 70.5t5.5 135t-5 134.5t-17.5 70.5t-35.5 22q-21 0 -33.5 -21.5t-18 -71t-5.5 -134.5t5 -133.5t17.5 -71t34.5 -22.5t34.5 21.5zM133 917q-1 8 -1 22
q0 44 14 66.5t42 22.5q25 0 50 -17q16 -9 23 -9q8 0 11.5 7t2.5 20l66 -10q3 -54 -10.5 -82.5t-42.5 -28.5q-24 0 -52 17q-14 9 -23 9q-7 0 -10.5 -7t-2.5 -21zM309 889l46 -133l-99 -8l-20 71l-19 -71l-100 8l46 133h146z" />
    <glyph glyph-name="uni1ED7" unicode="&#x1ed7;" horiz-adv-x="414" 
d="M71.5 61.5q-47.5 73.5 -47.5 214.5q0 138 46.5 211.5t137.5 73.5q88 0 135.5 -72.5t47.5 -211.5q0 -140 -47 -214.5t-137 -74.5q-88 0 -135.5 73.5zM256 276q0 161 -49 161t-49 -160q0 -164 50 -164q48 0 48 163zM104 767q-1 8 -1 22q0 44 14 66.5t42 22.5q25 0 50 -17
q16 -9 23 -9q8 0 11.5 7t2.5 20l66 -10q3 -54 -10.5 -82.5t-42.5 -28.5q-24 0 -52 17q-14 9 -23 9q-7 0 -10.5 -7t-2.5 -21zM280 739l46 -133l-99 -8l-20 71l-19 -71l-100 8l46 133h146z" />
    <glyph glyph-name="uni1ED8" unicode="&#x1ed8;" horiz-adv-x="473" 
d="M30 350q0 362 206 362q102 0 154.5 -88t52.5 -274q0 -362 -207 -362q-206 0 -206 362zM270.5 144.5q12.5 21.5 18 70.5t5.5 135t-5 134.5t-17.5 70.5t-35.5 22q-21 0 -33.5 -21.5t-18 -71t-5.5 -134.5t5 -133.5t17.5 -71t34.5 -22.5t34.5 21.5zM173 -170v124h127v-124
h-127zM314 871l48 -122l-104 -7l-21 65l-21 -65l-105 7l49 122h154z" />
    <glyph glyph-name="uni1ED9" unicode="&#x1ed9;" horiz-adv-x="414" 
d="M71.5 61.5q-47.5 73.5 -47.5 214.5q0 138 46.5 211.5t137.5 73.5q88 0 135.5 -72.5t47.5 -211.5q0 -140 -47 -214.5t-137 -74.5q-88 0 -135.5 73.5zM256 276q0 161 -49 161t-49 -160q0 -164 50 -164q48 0 48 163zM144 -170v124h127v-124h-127zM281 743l46 -134l-99 -7
l-20 71l-19 -71l-100 7l46 134h146z" />
    <glyph glyph-name="uni1EDA" unicode="&#x1eda;" horiz-adv-x="473" 
d="M446 794q6 -33 6 -60q0 -45 -15.5 -74.5t-43.5 -39.5q50 -89 50 -270q0 -362 -207 -362q-206 0 -206 362t206 362q47 0 81 -17q10 1 14 8.5t4 29.5q0 19 -3 55zM270.5 144.5q12.5 21.5 18 70.5t5.5 135t-5 134.5t-17.5 70.5t-35.5 22q-21 0 -33.5 -21.5t-18 -71
t-5.5 -134.5t5 -133.5t17.5 -71t34.5 -22.5t34.5 21.5zM370 847l-89 -106l-98 7l67 125z" />
    <glyph glyph-name="uni1EDB" unicode="&#x1edb;" horiz-adv-x="414" 
d="M416 640q6 -33 6 -60q0 -47 -17.5 -77.5t-47.5 -38.5q34 -71 34 -187q0 -140 -47 -214.5t-137 -74.5q-88 0 -135.5 73.5t-47.5 214.5q0 138 46.5 211.5t137.5 73.5q44 0 81 -20q9 2 12.5 10t3.5 29q0 18 -3 54zM256 276q0 161 -49 161t-49 -160q0 -164 50 -164
q48 0 48 163zM326 734l-86 -131l-82 7l55 142z" />
    <glyph glyph-name="uni1EDC" unicode="&#x1edc;" horiz-adv-x="473" 
d="M446 794q6 -33 6 -60q0 -45 -15.5 -74.5t-43.5 -39.5q50 -89 50 -270q0 -362 -207 -362q-206 0 -206 362t206 362q47 0 81 -17q10 1 14 8.5t4 29.5q0 19 -3 55zM270.5 144.5q12.5 21.5 18 70.5t5.5 135t-5 134.5t-17.5 70.5t-35.5 22q-21 0 -33.5 -21.5t-18 -71
t-5.5 -134.5t5 -133.5t17.5 -71t34.5 -22.5t34.5 21.5zM290 747l-98 -6l-89 105l120 27z" />
    <glyph glyph-name="uni1EDD" unicode="&#x1edd;" horiz-adv-x="414" 
d="M416 640q6 -33 6 -60q0 -47 -17.5 -77.5t-47.5 -38.5q34 -71 34 -187q0 -140 -47 -214.5t-137 -74.5q-88 0 -135.5 73.5t-47.5 214.5q0 138 46.5 211.5t137.5 73.5q44 0 81 -20q9 2 12.5 10t3.5 29q0 18 -3 54zM256 276q0 161 -49 161t-49 -160q0 -164 50 -164
q48 0 48 163zM250 611l-82 -7l-86 131l113 18z" />
    <glyph glyph-name="uni1EDE" unicode="&#x1ede;" horiz-adv-x="473" 
d="M446 794q6 -33 6 -60q0 -45 -15.5 -74.5t-43.5 -39.5q50 -89 50 -270q0 -362 -207 -362q-206 0 -206 362t206 362q47 0 81 -17q10 1 14 8.5t4 29.5q0 19 -3 55zM270.5 144.5q12.5 21.5 18 70.5t5.5 135t-5 134.5t-17.5 70.5t-35.5 22q-21 0 -33.5 -21.5t-18 -71
t-5.5 -134.5t5 -133.5t17.5 -71t34.5 -22.5t34.5 21.5zM187 781q16 8 22.5 16t6.5 19q0 10 -6 15.5t-15 5.5q-10 0 -17 -5l-13 63q32 19 67 19q33 0 54.5 -19.5t21.5 -56.5q0 -59 -70 -103z" />
    <glyph glyph-name="uni1EDF" unicode="&#x1edf;" horiz-adv-x="414" 
d="M416 640q6 -33 6 -60q0 -47 -17.5 -77.5t-47.5 -38.5q34 -71 34 -187q0 -140 -47 -214.5t-137 -74.5q-88 0 -135.5 73.5t-47.5 214.5q0 138 46.5 211.5t137.5 73.5q44 0 81 -20q9 2 12.5 10t3.5 29q0 18 -3 54zM256 276q0 161 -49 161t-49 -160q0 -164 50 -164
q48 0 48 163zM159 630q16 8 22.5 16t6.5 19q0 10 -6 15.5t-15 5.5q-10 0 -17 -5l-13 63q32 19 67 19q33 0 54.5 -19.5t21.5 -56.5q0 -59 -70 -103z" />
    <glyph glyph-name="uni1EE0" unicode="&#x1ee0;" horiz-adv-x="473" 
d="M446 794q6 -33 6 -60q0 -45 -15.5 -74.5t-43.5 -39.5q50 -89 50 -270q0 -362 -207 -362q-206 0 -206 362t206 362q47 0 81 -17q10 1 14 9t4 31q0 27 -2 46q-14 -37 -46 -37q-15 0 -26.5 4.5t-24.5 12.5q-14 9 -23 9q-16 0 -13 -28l-67 11q-1 8 -1 22q0 44 14 67.5
t42 23.5q23 0 51 -17q14 -9 21 -9q16 0 15 26l65 -9q1 -7 1 -21q0 -28 -6 -48zM270.5 144.5q12.5 21.5 18 70.5t5.5 135t-5 134.5t-17.5 70.5t-35.5 22q-21 0 -33.5 -21.5t-18 -71t-5.5 -134.5t5 -133.5t17.5 -71t34.5 -22.5t34.5 21.5z" />
    <glyph glyph-name="uni1EE1" unicode="&#x1ee1;" horiz-adv-x="414" 
d="M416 640q6 -33 6 -60q0 -47 -17.5 -77.5t-47.5 -38.5q34 -71 34 -187q0 -140 -47 -214.5t-137 -74.5q-88 0 -135.5 73.5t-47.5 214.5q0 138 46.5 211.5t137.5 73.5q44 0 81 -20q9 2 12.5 10t3.5 29q0 18 -3 54zM256 276q0 161 -49 161t-49 -160q0 -164 50 -164
q48 0 48 163zM104 619q-1 8 -1 22q0 90 56 90q23 0 51 -17q14 -9 21 -9q16 0 15 27l65 -10q3 -55 -10.5 -83.5t-42.5 -28.5q-15 0 -26.5 4.5t-24.5 12.5q-14 9 -23 9q-8 0 -11 -7.5t-2 -20.5z" />
    <glyph glyph-name="uni1EE2" unicode="&#x1ee2;" horiz-adv-x="473" 
d="M446 794q6 -33 6 -60q0 -45 -15.5 -74.5t-43.5 -39.5q50 -89 50 -270q0 -362 -207 -362q-206 0 -206 362t206 362q47 0 81 -17q10 1 14 8.5t4 29.5q0 19 -3 55zM270.5 144.5q12.5 21.5 18 70.5t5.5 135t-5 134.5t-17.5 70.5t-35.5 22q-21 0 -33.5 -21.5t-18 -71
t-5.5 -134.5t5 -133.5t17.5 -71t34.5 -22.5t34.5 21.5zM173 -170v124h127v-124h-127z" />
    <glyph glyph-name="uni1EE3" unicode="&#x1ee3;" horiz-adv-x="414" 
d="M416 640q6 -33 6 -60q0 -47 -17.5 -77.5t-47.5 -38.5q34 -71 34 -187q0 -140 -47 -214.5t-137 -74.5q-88 0 -135.5 73.5t-47.5 214.5q0 138 46.5 211.5t137.5 73.5q44 0 81 -20q9 2 12.5 10t3.5 29q0 18 -3 54zM256 276q0 161 -49 161t-49 -160q0 -164 50 -164
q48 0 48 163zM144 -170v124h127v-124h-127z" />
    <glyph glyph-name="uni1EE4" unicode="&#x1ee4;" horiz-adv-x="446" 
d="M87.5 39q-48.5 51 -48.5 141v520h139v-517q0 -34 11.5 -52.5t33.5 -18.5t34 18.5t12 52.5v517h138v-520q0 -90 -48.5 -141t-135.5 -51t-135.5 51zM161 -170v124h127v-124h-127z" />
    <glyph glyph-name="uni1EE5" unicode="&#x1ee5;" horiz-adv-x="424" 
d="M248 549h133v-549h-133v55q-17 -31 -42 -49t-55 -18q-56 0 -83 42t-27 131v388h133v-381q0 -56 29 -56q12 0 24.5 14.5t20.5 39.5v383zM136 -170v124h127v-124h-127z" />
    <glyph glyph-name="uni1EE6" unicode="&#x1ee6;" horiz-adv-x="446" 
d="M87.5 39q-48.5 51 -48.5 141v520h139v-517q0 -34 11.5 -52.5t33.5 -18.5t34 18.5t12 52.5v517h138v-520q0 -90 -48.5 -141t-135.5 -51t-135.5 51zM175 781q16 8 22.5 16t6.5 19q0 10 -6 15.5t-15 5.5q-10 0 -17 -5l-13 63q32 19 67 19q33 0 54.5 -19.5t21.5 -56.5
q0 -59 -70 -103z" />
    <glyph glyph-name="uni1EE7" unicode="&#x1ee7;" horiz-adv-x="424" 
d="M248 549h133v-549h-133v55q-17 -31 -42 -49t-55 -18q-56 0 -83 42t-27 131v388h133v-381q0 -56 29 -56q12 0 24.5 14.5t20.5 39.5v383zM150 630q16 8 22.5 16t6.5 19q0 10 -6 15.5t-15 5.5q-10 0 -17 -5l-13 63q32 19 67 19q33 0 54.5 -19.5t21.5 -56.5q0 -59 -70 -103z
" />
    <glyph glyph-name="uni1EE8" unicode="&#x1ee8;" horiz-adv-x="446" 
d="M467 799q6 -33 6 -60q0 -48 -17.5 -78t-48.5 -38v-443q0 -90 -48.5 -141t-135.5 -51t-135.5 51t-48.5 141v520h139v-517q0 -34 11.5 -52.5t33.5 -18.5t34 18.5t12 52.5v517h64q13 0 18 7.5t5 31.5q0 18 -3 54zM358 847l-89 -106l-98 7l67 125z" />
    <glyph glyph-name="uni1EE9" unicode="&#x1ee9;" horiz-adv-x="424" 
d="M450 649q6 -33 6 -61q0 -51 -20 -81.5t-55 -35.5v-471h-133v55q-17 -31 -42 -49t-55 -18q-56 0 -83 42t-27 131v388h133v-381q0 -56 29 -56q12 0 24.5 14.5t20.5 39.5v383h68v1q13 0 18 7.5t5 31.5q0 18 -3 54zM318 734l-86 -131l-82 7l55 142z" />
    <glyph glyph-name="uni1EEA" unicode="&#x1eea;" horiz-adv-x="446" 
d="M467 799q6 -33 6 -60q0 -48 -17.5 -78t-48.5 -38v-443q0 -90 -48.5 -141t-135.5 -51t-135.5 51t-48.5 141v520h139v-517q0 -34 11.5 -52.5t33.5 -18.5t34 18.5t12 52.5v517h64q13 0 18 7.5t5 31.5q0 18 -3 54zM277 747l-98 -6l-89 105l120 27z" />
    <glyph glyph-name="uni1EEB" unicode="&#x1eeb;" horiz-adv-x="424" 
d="M450 649q6 -33 6 -61q0 -51 -20 -81.5t-55 -35.5v-471h-133v55q-17 -31 -42 -49t-55 -18q-56 0 -83 42t-27 131v388h133v-381q0 -56 29 -56q12 0 24.5 14.5t20.5 39.5v383h68v1q13 0 18 7.5t5 31.5q0 18 -3 54zM242 611l-82 -7l-86 131l113 18z" />
    <glyph glyph-name="uni1EEC" unicode="&#x1eec;" horiz-adv-x="446" 
d="M467 799q6 -33 6 -60q0 -48 -17.5 -78t-48.5 -38v-443q0 -90 -48.5 -141t-135.5 -51t-135.5 51t-48.5 141v520h139v-517q0 -34 11.5 -52.5t33.5 -18.5t34 18.5t12 52.5v517h64q13 0 18 7.5t5 31.5q0 18 -3 54zM175 781q16 8 22.5 16t6.5 19q0 10 -6 15.5t-15 5.5
q-10 0 -17 -5l-13 63q32 19 67 19q33 0 54.5 -19.5t21.5 -56.5q0 -59 -70 -103z" />
    <glyph glyph-name="uni1EED" unicode="&#x1eed;" horiz-adv-x="424" 
d="M450 649q6 -33 6 -61q0 -51 -20 -81.5t-55 -35.5v-471h-133v55q-17 -31 -42 -49t-55 -18q-56 0 -83 42t-27 131v388h133v-381q0 -56 29 -56q12 0 24.5 14.5t20.5 39.5v383h68v1q13 0 18 7.5t5 31.5q0 18 -3 54zM150 630q16 8 22.5 16t6.5 19q0 10 -6 15.5t-15 5.5
q-10 0 -17 -5l-13 63q32 19 67 19q33 0 54.5 -19.5t21.5 -56.5q0 -59 -70 -103z" />
    <glyph glyph-name="uni1EEE" unicode="&#x1eee;" horiz-adv-x="446" 
d="M467 799q6 -33 6 -60q0 -48 -17.5 -78t-48.5 -38v-443q0 -90 -48.5 -141t-135.5 -51t-135.5 51t-48.5 141v520h139v-517q0 -34 11.5 -52.5t33.5 -18.5t34 18.5t12 52.5v517h64q13 0 18 7.5t5 31.5q0 18 -3 54zM120 753q-1 8 -1 22q0 90 56 90q23 0 51 -17q14 -9 21 -9
q16 0 15 27l65 -10q3 -55 -10.5 -83.5t-42.5 -28.5q-15 0 -26.5 4.5t-24.5 12.5q-14 9 -23 9q-8 0 -11 -7.5t-2 -20.5z" />
    <glyph glyph-name="uni1EEF" unicode="&#x1eef;" horiz-adv-x="424" 
d="M450 649q6 -33 6 -61q0 -51 -20 -81.5t-55 -35.5v-471h-133v55q-17 -31 -42 -49t-55 -18q-56 0 -83 42t-27 131v388h133v-381q0 -56 29 -56q12 0 24.5 14.5t20.5 39.5v383h68v1q13 0 18 7.5t5 31.5q0 18 -3 54zM96 619q-1 8 -1 22q0 90 56 90q23 0 51 -17q14 -9 21 -9
q16 0 15 27l65 -10q3 -55 -10.5 -83.5t-42.5 -28.5q-15 0 -26.5 4.5t-24.5 12.5q-14 9 -23 9q-8 0 -11 -7.5t-2 -20.5z" />
    <glyph glyph-name="uni1EF0" unicode="&#x1ef0;" horiz-adv-x="446" 
d="M467 799q6 -33 6 -60q0 -48 -17.5 -78t-48.5 -38v-443q0 -90 -48.5 -141t-135.5 -51t-135.5 51t-48.5 141v520h139v-517q0 -34 11.5 -52.5t33.5 -18.5t34 18.5t12 52.5v517h64q13 0 18 7.5t5 31.5q0 18 -3 54zM161 -170v124h127v-124h-127z" />
    <glyph glyph-name="uni1EF1" unicode="&#x1ef1;" horiz-adv-x="424" 
d="M450 649q6 -33 6 -61q0 -51 -20 -81.5t-55 -35.5v-471h-133v55q-17 -31 -42 -49t-55 -18q-56 0 -83 42t-27 131v388h133v-381q0 -56 29 -56q12 0 24.5 14.5t20.5 39.5v383h68v1q13 0 18 7.5t5 31.5q0 18 -3 54zM136 -170v124h127v-124h-127z" />
    <glyph glyph-name="Ygrave" unicode="&#x1ef2;" horiz-adv-x="395" 
d="M249 700h143l-126 -504v-196h-138v196l-125 504h143l52 -318zM251 747l-98 -6l-89 105l120 27z" />
    <glyph glyph-name="ygrave" unicode="&#x1ef3;" horiz-adv-x="409" 
d="M206 165l59 384h135l-119 -549l-36 -171h-135l32 157l-9 -1l-125 564h136l59 -384h3zM247 609l-82 -7l-86 131l113 18z" />
    <glyph glyph-name="uni1EF4" unicode="&#x1ef4;" horiz-adv-x="395" 
d="M249 700h143l-126 -504v-196h-138v196l-125 504h143l52 -318zM134 -170v124h127v-124h-127z" />
    <glyph glyph-name="uni1EF5" unicode="&#x1ef5;" horiz-adv-x="409" 
d="M206 165l59 384h135l-119 -549l-36 -171h-135l32 157l-9 -1l-125 564h136l59 -384h3zM281 -170v124h127v-124h-127z" />
    <glyph glyph-name="uni1EF6" unicode="&#x1ef6;" horiz-adv-x="395" 
d="M249 700h143l-126 -504v-196h-138v196l-125 504h143l52 -318zM148 781q16 8 22.5 16t6.5 19q0 10 -6 15.5t-15 5.5q-10 0 -17 -5l-13 63q32 19 67 19q33 0 54.5 -19.5t21.5 -56.5q0 -59 -70 -103z" />
    <glyph glyph-name="uni1EF7" unicode="&#x1ef7;" horiz-adv-x="409" 
d="M206 165l59 384h135l-119 -549l-36 -171h-135l32 157l-9 -1l-125 564h136l59 -384h3zM156 629q16 8 22.5 16t6.5 19q0 10 -6 15.5t-15 5.5q-10 0 -17 -5l-13 63q32 19 67 19q33 0 54.5 -19.5t21.5 -56.5q0 -59 -70 -103z" />
    <glyph glyph-name="uni1EF8" unicode="&#x1ef8;" horiz-adv-x="395" 
d="M249 700h143l-126 -504v-196h-138v196l-125 504h143l52 -318zM94 753q-1 8 -1 22q0 90 56 90q23 0 51 -17q14 -9 21 -9q16 0 15 27l65 -10q3 -55 -10.5 -83.5t-42.5 -28.5q-15 0 -26.5 4.5t-24.5 12.5q-14 9 -23 9q-8 0 -11 -7.5t-2 -20.5z" />
    <glyph glyph-name="uni1EF9" unicode="&#x1ef9;" horiz-adv-x="409" 
d="M206 165l59 384h135l-119 -549l-36 -171h-135l32 157l-9 -1l-125 564h136l59 -384h3zM101 618q-1 8 -1 22q0 90 56 90q23 0 51 -17q14 -9 21 -9q16 0 15 27l65 -10q3 -55 -10.5 -83.5t-42.5 -28.5q-15 0 -26.5 4.5t-24.5 12.5q-14 9 -23 9q-8 0 -11 -7.5t-2 -20.5z" />
    <glyph glyph-name="uni2000" unicode="&#x2000;" horiz-adv-x="527" 
 />
    <glyph glyph-name="uni2001" unicode="&#x2001;" horiz-adv-x="1027" 
 />
    <glyph glyph-name="uni2002" unicode="&#x2002;" horiz-adv-x="527" 
 />
    <glyph glyph-name="uni2003" unicode="&#x2003;" horiz-adv-x="1027" 
 />
    <glyph glyph-name="uni2004" unicode="&#x2004;" horiz-adv-x="360" 
 />
    <glyph glyph-name="uni2005" unicode="&#x2005;" horiz-adv-x="277" 
 />
    <glyph glyph-name="uni2006" unicode="&#x2006;" horiz-adv-x="194" 
 />
    <glyph glyph-name="uni2007" unicode="&#x2007;" horiz-adv-x="423" 
 />
    <glyph glyph-name="uni2008" unicode="&#x2008;" horiz-adv-x="274" 
 />
    <glyph glyph-name="uni2009" unicode="&#x2009;" horiz-adv-x="227" 
 />
    <glyph glyph-name="uni200A" unicode="&#x200a;" horiz-adv-x="170" 
 />
    <glyph glyph-name="uni200B" unicode="&#x200b;" horiz-adv-x="27" 
 />
    <glyph glyph-name="uni200C" unicode="&#x200c;" horiz-adv-x="27" 
 />
    <glyph glyph-name="uni200D" unicode="&#x200d;" horiz-adv-x="27" 
 />
    <glyph glyph-name="uni2010" unicode="&#x2010;" horiz-adv-x="263" 
d="M253 282v-110h-243v110h243z" />
    <glyph glyph-name="figuredash" unicode="&#x2012;" horiz-adv-x="263" 
d="M253 282v-110h-243v110h243z" />
    <glyph glyph-name="endash" unicode="&#x2013;" horiz-adv-x="385" 
d="M375 282v-110h-365v110h365z" />
    <glyph glyph-name="emdash" unicode="&#x2014;" horiz-adv-x="506" 
d="M496 282v-110h-486v110h486z" />
    <glyph glyph-name="uni2015" unicode="&#x2015;" horiz-adv-x="506" 
d="M496 282v-110h-486v110h486z" />
    <glyph glyph-name="quoteleft" unicode="&#x2018;" horiz-adv-x="274" 
d="M217 697q-31 -21 -45.5 -41t-13.5 -48h52v-136h-140q-10 50 -10 93q0 75 31.5 116t92.5 69z" />
    <glyph glyph-name="quoteright" unicode="&#x2019;" horiz-adv-x="274" 
d="M57 514q31 21 45.5 40.5t13.5 48.5h-52v135h140q10 -50 10 -93q0 -74 -31.5 -115t-92.5 -69z" />
    <glyph glyph-name="quotesinglbase" unicode="&#x201a;" horiz-adv-x="274" 
d="M57 -89q31 21 45.5 40.5t13.5 48.5h-52v135h140q10 -50 10 -93q0 -74 -31.5 -115t-92.5 -69z" />
    <glyph glyph-name="quotedblleft" unicode="&#x201c;" horiz-adv-x="474" 
d="M217 692q-31 -21 -45.5 -40.5t-13.5 -48.5h52v-135h-140q-10 50 -10 93q0 74 31.5 115t92.5 69zM417 692q-31 -21 -45.5 -40.5t-13.5 -48.5h52v-135h-140q-10 50 -10 93q0 74 31.5 115t92.5 69z" />
    <glyph glyph-name="quotedblright" unicode="&#x201d;" horiz-adv-x="474" 
d="M57 515q31 21 45.5 40.5t13.5 48.5h-52v135h140q10 -50 10 -93q0 -74 -31.5 -115t-92.5 -69zM257 515q31 21 45.5 40.5t13.5 48.5h-52v135h140q10 -50 10 -93q0 -74 -31.5 -115t-92.5 -69z" />
    <glyph glyph-name="quotedblbase" unicode="&#x201e;" horiz-adv-x="474" 
d="M57 -89q31 21 45.5 40.5t13.5 48.5h-52v135h140q10 -50 10 -93q0 -74 -31.5 -115t-92.5 -69zM257 -89q31 21 45.5 40.5t13.5 48.5h-52v135h140q10 -50 10 -93q0 -74 -31.5 -115t-92.5 -69z" />
    <glyph glyph-name="dagger" unicode="&#x2020;" horiz-adv-x="533" 
d="M314 498l189 16v-129l-189 16l17 -502h-128l17 502l-190 -16v129l190 -16l-17 202h128z" />
    <glyph glyph-name="daggerdbl" unicode="&#x2021;" horiz-adv-x="492" 
d="M294 498l188 16v-129l-188 16l6 -102l-6 -101l188 16v-129l-187 16l16 -202h-129l16 202l-188 -16v129l189 -16l-6 101l6 102l-189 -16v129l189 -16l-17 202h129z" />
    <glyph glyph-name="bullet" unicode="&#x2022;" horiz-adv-x="352" 
d="M96.5 257q-32.5 33 -32.5 80q0 46 32.5 79t78.5 33q49 0 81.5 -33t32.5 -79q0 -47 -32.5 -80t-81.5 -33q-46 0 -78.5 33z" />
    <glyph glyph-name="twodotenleader" unicode="&#x2025;" horiz-adv-x="548" 
d="M64 0v135h146v-135h-146zM338 0v135h146v-135h-146z" />
    <glyph glyph-name="ellipsis" unicode="&#x2026;" horiz-adv-x="734" 
d="M64 0v135h146v-135h-146zM294 0v135h146v-135h-146zM524 0v135h146v-135h-146z" />
    <glyph glyph-name="uni202F" unicode="&#x202f;" horiz-adv-x="627" 
 />
    <glyph glyph-name="perthousand" unicode="&#x2030;" horiz-adv-x="912" 
d="M48 417q-31 45 -31 132t31 132.5t92 45.5t92.5 -45t31.5 -133q0 -86 -31 -131.5t-93 -45.5q-61 0 -92 45zM161 479.5q7 21.5 7 69.5q0 46 -6.5 68.5t-21.5 22.5q-14 0 -20.5 -22t-6.5 -69t6 -69t21 -22q14 0 21 21.5zM241 0h-95l245 700h94zM399 38q-31 45 -31 132
t31 132.5t92 45.5t92.5 -45t31.5 -133q0 -86 -31 -131.5t-93 -45.5q-61 0 -92 45zM512 100.5q7 21.5 7 69.5q0 46 -6.5 68.5t-21.5 22.5q-14 0 -20.5 -22t-6.5 -69t6 -69t21 -22q14 0 21 21.5zM679 38q-31 45 -31 132t31 132.5t92 45.5t92.5 -45t31.5 -133q0 -86 -31 -131.5
t-93 -45.5q-61 0 -92 45zM792 100.5q7 21.5 7 69.5q0 46 -6.5 68.5t-21.5 22.5q-14 0 -20.5 -22t-6.5 -69t6 -69t21 -22q14 0 21 21.5z" />
    <glyph glyph-name="minute" unicode="&#x2032;" horiz-adv-x="218" 
d="M146 738l-13 -194h-90l-13 194h116z" />
    <glyph glyph-name="second" unicode="&#x2033;" horiz-adv-x="346" 
d="M146 738l-13 -194h-90l-13 194h116zM282 738l-13 -194h-90l-13 194h116z" />
    <glyph glyph-name="guilsinglleft" unicode="&#x2039;" horiz-adv-x="269" 
d="M259 74l-77 -39l-172 203v48l172 203l77 -40l-142 -187z" />
    <glyph glyph-name="guilsinglright" unicode="&#x203a;" horiz-adv-x="269" 
d="M259 238l-172 -203l-77 39l142 188l-142 187l77 40l172 -203v-48z" />
    <glyph glyph-name="fraction" unicode="&#x2044;" horiz-adv-x="70" 
d="M-40 0h-95l245 700h94z" />
    <glyph glyph-name="uni205F" unicode="&#x205f;" horiz-adv-x="4527" 
 />
    <glyph glyph-name="uni2070" unicode="&#x2070;" horiz-adv-x="281" 
d="M48 508q-31 45 -31 132t31 132.5t92 45.5t92.5 -45t31.5 -133q0 -86 -31 -131.5t-93 -45.5q-61 0 -92 45zM161 570.5q7 21.5 7 69.5q0 46 -6.5 68.5t-21.5 22.5q-14 0 -20.5 -22t-6.5 -69t6 -69t21 -22q14 0 21 21.5z" />
    <glyph glyph-name="uni2074" unicode="&#x2074;" horiz-adv-x="285" 
d="M245 471h-89v61h-123l-16 58l106 221h122v-208h23v-71h-23v-61zM158 731l-50 -128h50v128z" />
    <glyph glyph-name="uni2075" unicode="&#x2075;" horiz-adv-x="229" 
d="M17 471l13 76q29 -8 51 -8q35 0 35 37q0 41 -38 41q-23 0 -43 -8l-14 28l5 174h166v-77h-77l-2 -53l15 1q40 0 62 -28.5t22 -79.5q0 -56 -33 -85.5t-87 -29.5q-37 0 -75 12z" />
    <glyph glyph-name="uni2076" unicode="&#x2076;" horiz-adv-x="269" 
d="M17 619q1 98 34.5 148.5t96.5 50.5q30 0 69 -12l-15 -80q-19 8 -38 8q-57 0 -56 -73v-14q8 22 23 34t37 12q39 0 61.5 -27t22.5 -81q0 -59 -31 -91t-88 -32q-116 0 -116 157zM160 591q0 47 -22 47q-12 0 -18.5 -12t-6.5 -35q0 -22 6.5 -34t16.5 -12q24 0 24 46z" />
    <glyph glyph-name="uni2077" unicode="&#x2077;" horiz-adv-x="215" 
d="M116 470h-94l71 262h-75v78h166l14 -40z" />
    <glyph glyph-name="uni2078" unicode="&#x2078;" horiz-adv-x="280" 
d="M50.5 492q-33.5 29 -33.5 77q0 29 12.5 51.5t34.5 33.5q-18 8 -29 26.5t-11 41.5q0 44 32 70t85 26q52 0 83.5 -26.5t31.5 -69.5q0 -25 -10.5 -43.5t-28.5 -25.5q21 -11 33.5 -33.5t12.5 -50.5q0 -48 -33.5 -77t-88.5 -29q-57 0 -90.5 29zM158.5 677.5q6.5 8.5 6.5 24.5
q0 15 -6.5 24t-17.5 9q-12 0 -19.5 -9t-7.5 -24t7.5 -24t19.5 -9q11 0 17.5 8.5zM162 556.5q8 10.5 8 28.5q0 17 -8 27t-21 10q-14 0 -22.5 -10t-8.5 -27q0 -18 8.5 -28.5t22.5 -10.5q13 0 21 10.5z" />
    <glyph glyph-name="uni2079" unicode="&#x2079;" horiz-adv-x="269" 
d="M51 474l15 80q19 -8 39 -8q57 0 56 73v14q-15 -46 -60 -46q-39 0 -61.5 27t-22.5 81q0 59 31 91t87 32q117 0 117 -157q-1 -98 -35 -148.5t-97 -50.5q-34 0 -69 12zM155 689q0 23 -6 34.5t-16 11.5q-24 0 -24 -46q0 -47 22 -47q24 0 24 47z" />
    <glyph glyph-name="uni207F" unicode="&#x207f;" horiz-adv-x="246" 
d="M213.5 718.5q17.5 -26.5 17.5 -77.5v-194h-87v171q0 17 -3 27t-13 10q-9 0 -14.5 -15.5t-5.5 -43.5v-149h-88v291h88v-32q20 39 60 39q28 0 45.5 -26.5z" />
    <glyph glyph-name="uni2080" unicode="&#x2080;" horiz-adv-x="281" 
d="M48 -57q-31 45 -31 132t31 132.5t92 45.5t92.5 -45t31.5 -133q0 -86 -31 -131.5t-93 -45.5q-61 0 -92 45zM161 5.5q7 21.5 7 69.5q0 46 -6.5 68.5t-21.5 22.5q-14 0 -20.5 -22t-6.5 -69t6 -69t21 -22q14 0 21 21.5z" />
    <glyph glyph-name="uni2081" unicode="&#x2081;" horiz-adv-x="179" 
d="M17 227l69 14h76v-336h-94v244l-40 -8z" />
    <glyph glyph-name="uni2082" unicode="&#x2082;" horiz-adv-x="235" 
d="M17 -21q27 20 60 66q14 23 20 40.5t6 38.5q0 16 -11.5 25.5t-28.5 9.5q-14 0 -30 -8l-11 86q36 11 65 11q60 0 92.5 -28t32.5 -79q0 -55 -51 -115l-25 -29h82v-92h-201v74z" />
    <glyph glyph-name="uni2083" unicode="&#x2083;" horiz-adv-x="223" 
d="M17 -90l12 85q18 -8 45 -8q33 0 33 33q0 27 -30 31q-10 1 -32 1v52l48 65h-68v77h164l6 -69l-48 -68l9 -3q50 -25 50 -90q0 -58 -28 -87t-82 -29q-40 0 -79 10z" />
    <glyph glyph-name="uni2084" unicode="&#x2084;" horiz-adv-x="285" 
d="M245 -94h-89v61h-123l-16 58l106 221h122v-208h23v-71h-23v-61zM158 166l-50 -128h50v128z" />
    <glyph glyph-name="uni2085" unicode="&#x2085;" horiz-adv-x="229" 
d="M17 -93l13 76q29 -8 51 -8q35 0 35 37q0 41 -38 41q-23 0 -43 -8l-14 28l5 174h166v-77h-77l-2 -53l15 1q40 0 62 -28.5t22 -79.5q0 -56 -33 -85.5t-87 -29.5q-37 0 -75 12z" />
    <glyph glyph-name="uni2086" unicode="&#x2086;" horiz-adv-x="269" 
d="M17 54q1 98 34.5 148.5t96.5 50.5q30 0 69 -12l-15 -80q-19 8 -38 8q-57 0 -56 -73v-14q8 22 23 34t37 12q39 0 61.5 -27t22.5 -81q0 -59 -31 -91t-88 -32q-116 0 -116 157zM160 26q0 47 -22 47q-12 0 -18.5 -12t-6.5 -35q0 -22 6.5 -34t16.5 -12q24 0 24 46z" />
    <glyph glyph-name="uni2087" unicode="&#x2087;" horiz-adv-x="215" 
d="M116 -94h-94l71 262h-75v78h166l14 -40z" />
    <glyph glyph-name="uni2088" unicode="&#x2088;" horiz-adv-x="280" 
d="M50.5 -73q-33.5 29 -33.5 77q0 29 12.5 51.5t34.5 33.5q-18 8 -29 26.5t-11 41.5q0 44 32 70t85 26q52 0 83.5 -26.5t31.5 -69.5q0 -25 -10.5 -43.5t-28.5 -25.5q21 -11 33.5 -33.5t12.5 -50.5q0 -48 -33.5 -77t-88.5 -29q-57 0 -90.5 29zM158.5 112.5q6.5 8.5 6.5 24.5
q0 15 -6.5 24t-17.5 9q-12 0 -19.5 -9t-7.5 -24t7.5 -24t19.5 -9q11 0 17.5 8.5zM162 -8.5q8 10.5 8 28.5q0 17 -8 27t-21 10q-14 0 -22.5 -10t-8.5 -27q0 -18 8.5 -28.5t22.5 -10.5q13 0 21 10.5z" />
    <glyph glyph-name="uni2089" unicode="&#x2089;" horiz-adv-x="269" 
d="M51 -91l15 80q19 -8 39 -8q57 0 56 73v14q-15 -46 -60 -46q-39 0 -61.5 27t-22.5 81q0 59 31 91t87 32q117 0 117 -157q-1 -98 -35 -148.5t-97 -50.5q-34 0 -69 12zM155 124q0 23 -6 34.5t-16 11.5q-24 0 -24 -46q0 -47 22 -47q24 0 24 47z" />
    <glyph glyph-name="franc" unicode="&#x20a3;" horiz-adv-x="363" 
d="M344 700v-125h-158v-192h141v-122h-141v-85h40v-73h-40v-103h-138v103h-55v73h55v524h296z" />
    <glyph glyph-name="lira" unicode="&#x20a4;" horiz-adv-x="429" 
d="M216 115h203v-116h-402v91l61 19v93h-66v82h66v52h-66v83h66v38q0 125 53.5 189.5t152.5 64.5q43 0 100 -21l-20 -129q-35 16 -69 16q-43 0 -61 -27t-18 -92v-39h129v-83h-129v-52h129v-82h-129v-87z" />
    <glyph glyph-name="uni20A6" unicode="&#x20a6;" horiz-adv-x="476" 
d="M428 394h59v-82h-59v-312h-118l-109 312h-21v-312h-132v312h-57v82h57v306h123l106 -306h19v306h132v-306z" />
    <glyph glyph-name="peseta" unicode="&#x20a7;" horiz-adv-x="1024" 
d="M346 636q56 -64 56 -183q0 -116 -53.5 -183t-154.5 -67h-22v-203h-138v700h159q97 0 153 -64zM190 325q33 0 53 33.5t20 94.5q0 57 -19.5 91t-53.5 34h-18v-253h18zM686 5q-21 -8 -45 -12.5t-41 -4.5q-71 0 -104.5 38.5t-33.5 117.5v289h-44v116h49l16 143h112v-143h83
v-116h-83v-282q0 -22 7.5 -30t21.5 -8q19 0 42 12zM713 10l18 121q19 -10 44.5 -16.5t46.5 -6.5q19 0 30 11.5t11 32.5q0 20 -15 39t-48 47q-39 35 -61 71t-22 90q0 78 44 120t113 42q50 0 108 -21l-19 -120q-43 22 -74 22q-19 0 -29.5 -11.5t-10.5 -31.5q0 -23 14 -41
t43 -44q45 -40 68 -79.5t23 -89.5q0 -72 -42.5 -114t-116.5 -42q-57 0 -125 21z" />
    <glyph glyph-name="dong" unicode="&#x20ab;" horiz-adv-x="434" 
d="M389 673h45v-73h-45v-600h-133v42q-36 -54 -96 -54q-136 0 -136 289q0 284 137 284q59 0 95 -54v93h-55v73h55v65h133v-65zM242.5 153.5q13.5 43.5 13.5 114.5q0 86 -12 128.5t-38 42.5q-21 0 -33 -37t-12 -125q0 -92 12 -129.5t33 -37.5q23 0 36.5 43.5zM390 -140h-348
v84h348v-84z" />
    <glyph glyph-name="Euro" unicode="&#x20ac;" horiz-adv-x="389" 
d="M373 7q-14 -8 -42.5 -13.5t-61.5 -5.5q-92 0 -149.5 68.5t-73.5 199.5h-36v63h32q-1 10 -1 31t1 31h-32v63h36q15 127 72 197t152 70q40 0 95 -21l-20 -127q-30 15 -64 15q-35 0 -59 -33.5t-33 -100.5h118v-63h-124v-30q0 -22 1 -32h123v-63h-118q9 -65 31.5 -100
t58.5 -35q43 0 72 17z" />
    <glyph glyph-name="uni20B1" unicode="&#x20b1;" horiz-adv-x="550" 
d="M540 524v-36h-74q1 -11 1 -35q0 -27 -3 -53h76v-36h-83q-18 -77 -68 -119t-130 -42h-22v-203h-138v364h-89v36h89v88h-89v36h89v176h159q81 0 134 -45t69 -131h79zM255 325q33 0 53 33.5t20 94.5q0 57 -19.5 91t-53.5 34h-18v-253h18z" />
    <glyph glyph-name="uni20B5" unicode="&#x20b5;" horiz-adv-x="386" 
d="M370 8q-30 -12 -61 -17v-62h-86v63q-91 17 -142 107.5t-51 250.5q0 157 49.5 249.5t143.5 108.5v66h86v-68q32 -8 55 -16l-20 -129q-35 16 -70 16q-48 0 -71 -51t-23 -175q0 -119 22.5 -173.5t70.5 -54.5q44 0 75 17z" />
    <glyph glyph-name="uni20B9" unicode="&#x20b9;" horiz-adv-x="433" 
d="M423 596h-93q17 -35 23 -76h70v-104h-69q-12 -105 -80 -153l91 -263h-144l-73 226h-123v109h84q45 0 71 19.5t35 61.5h-190v104h188q-20 76 -104 76h-84v104h398v-104z" />
    <glyph glyph-name="uni20BA" unicode="&#x20ba;" horiz-adv-x="548" 
d="M538 374q1 -189 -66.5 -281.5t-212.5 -92.5h-148v219l-56 -32l-32 52l88 51v73l-69 -40l-32 53l101 58v266h138v-186l68 39l33 -52l-101 -58v-73l81 47l32 -52l-113 -66v-174h20q75 0 109.5 62t34.5 187h125z" />
    <glyph glyph-name="uni20BD" unicode="&#x20bd;" horiz-adv-x="434" 
d="M186 203v-53h49v-74h-49v-76h-138v76h-46v73h46v551h159q97 0 153 -64t56 -183q0 -116 -53.5 -183t-154.5 -67h-22zM186 578v-253h18q33 0 53 33.5t20 94.5q0 57 -19.5 91t-53.5 34h-18z" />
    <glyph glyph-name="uni2113" unicode="&#x2113;" horiz-adv-x="472" 
d="M329 97q35 22 71 65l36 -43q-44 -62 -94 -92.5t-110 -30.5q-70 0 -100 41.5t-27 126.5l-55 -36l-20 50q36 23 81 56l1 8l43 268q13 94 61.5 146t114.5 52q51 0 81 -33.5t30 -91.5q0 -89 -57.5 -173t-190.5 -183q-7 -38 -7 -67q0 -39 15.5 -62t54.5 -23q37 0 72 22z
M208 309q86 73 126.5 137t40.5 131q0 29 -12.5 44.5t-33.5 15.5q-30 0 -53 -31.5t-33 -88.5z" />
    <glyph glyph-name="uni2116" unicode="&#x2116;" horiz-adv-x="745" 
d="M180 0h-132v700h123l125 -360v360h132v-700h-118l-130 373v-373zM530 482q-30 40 -30 115q0 71 29 112t83 41q51 0 80.5 -39.5t29.5 -112.5q0 -72 -28 -114t-82 -42q-52 0 -82 40zM629 545.5q6 17.5 6 51.5q0 67 -23 67q-24 0 -24 -66q0 -70 24 -70q11 0 17 17.5z
M714 328h-206v74h206v-74z" />
    <glyph glyph-name="uni2117" unicode="&#x2117;" horiz-adv-x="358" 
d="M287 681q40 -53 40 -145t-40 -145t-109 -53q-68 0 -108 53.5t-40 144.5t40 144.5t108 53.5q69 0 109 -53zM264.5 412.5q31.5 45.5 31.5 123.5t-31.5 123.5t-86.5 45.5q-54 0 -85.5 -45.5t-31.5 -123.5t31.5 -123.5t85.5 -45.5q55 0 86.5 45.5zM233.5 636.5
q20.5 -19.5 20.5 -55.5q0 -35 -20 -54.5t-57 -19.5h-11v-72h-49v221h59q37 0 57.5 -19.5zM175 546q14 0 22 9t8 26q0 14 -8 23t-21 9h-10v-67h9z" />
    <glyph glyph-name="trademark" unicode="&#x2122;" horiz-adv-x="662" 
d="M83 596h-73v104h256v-104h-72v-386h-111v386zM456 499l67 201h96v-490h-102v246l-44 -160h-35l-44 161v-247h-102v490h97z" />
    <glyph glyph-name="uni2126" unicode="&#x2126;" horiz-adv-x="461" 
d="M407 295.5q-24 -67.5 -69 -155.5l-10 -21l94 11v-130h-183v108q17 71 14 60q21 91 30 147.5t9 119.5q0 69 -15.5 105.5t-46.5 36.5q-29 0 -45 -36.5t-16 -105.5q0 -78 12 -147t41 -180v-108h-183v130l95 -11l-15 30q-44 88 -66.5 153t-22.5 142q0 129 51 198.5t150 69.5
q96 0 148 -69t52 -199q0 -81 -24 -148.5z" />
    <glyph glyph-name="estimated" unicode="&#x212e;" horiz-adv-x="844" 
d="M234.5 41.5q-90.5 44.5 -147.5 124.5t-57 183q0 94 51.5 175.5t141.5 130t199 48.5q99 0 189.5 -43.5t146.5 -123.5t56 -184v-8h-654q-6 0 -6 -4v-187q0 -21 35.5 -55t97 -59.5t136.5 -25.5q74 0 140 31t112 85l57 5q-55 -64 -137 -100.5t-173 -36.5q-97 0 -187.5 44.5z
M681 360l6 6v183q0 27 -38 59.5t-99 55.5t-127 23q-67 0 -129 -25t-101 -58.5t-39 -56.5v-181q0 -6 6 -6h521z" />
    <glyph glyph-name="uni2153" unicode="&#x2153;" horiz-adv-x="472" 
d="M17 701l69 14h76v-336h-94v244l-40 -8zM139 0h-95l245 700h94zM266 4l12 85q18 -8 45 -8q33 0 33 33q0 27 -30 31q-10 1 -32 1v52l48 65h-68v77h164l6 -69l-48 -68l9 -3q50 -25 50 -90q0 -58 -28 -87t-82 -29q-40 0 -79 10z" />
    <glyph glyph-name="uni2154" unicode="&#x2154;" horiz-adv-x="528" 
d="M17 453q27 20 60 66q14 23 20 40.5t6 38.5q0 16 -11.5 25.5t-28.5 9.5q-14 0 -30 -8l-11 86q36 11 65 11q60 0 92.5 -28t32.5 -79q0 -55 -51 -115l-25 -29h82v-92h-201v74zM195 0h-95l245 700h94zM322 4l12 85q18 -8 45 -8q33 0 33 33q0 27 -30 31q-10 1 -32 1v52l48 65
h-68v77h164l6 -69l-48 -68l9 -3q50 -25 50 -90q0 -58 -28 -87t-82 -29q-40 0 -79 10z" />
    <glyph glyph-name="oneeighth" unicode="&#x215b;" horiz-adv-x="528" 
d="M17 701l69 14h76v-336h-94v244l-40 -8zM139 0h-95l245 700h94zM299.5 22q-33.5 29 -33.5 77q0 29 12.5 51.5t34.5 33.5q-18 8 -29 26.5t-11 41.5q0 44 32 70t85 26q52 0 83.5 -26.5t31.5 -69.5q0 -25 -10.5 -43.5t-28.5 -25.5q21 -11 33.5 -33.5t12.5 -50.5
q0 -48 -33.5 -77t-88.5 -29q-57 0 -90.5 29zM407.5 207.5q6.5 8.5 6.5 24.5q0 15 -6.5 24t-17.5 9q-12 0 -19.5 -9t-7.5 -24t7.5 -24t19.5 -9q11 0 17.5 8.5zM411 86.5q8 10.5 8 28.5q0 17 -8 27t-21 10q-14 0 -22.5 -10t-8.5 -27q0 -18 8.5 -28.5t22.5 -10.5q13 0 21 10.5z
" />
    <glyph glyph-name="threeeighths" unicode="&#x215c;" horiz-adv-x="572" 
d="M17 383l12 85q18 -8 45 -8q33 0 33 33q0 27 -30 31q-10 1 -32 1v52l48 65h-68v77h164l6 -69l-48 -68l9 -3q50 -25 50 -90q0 -58 -28 -87t-82 -29q-40 0 -79 10zM183 0h-95l245 700h94zM343.5 22q-33.5 29 -33.5 77q0 29 12.5 51.5t34.5 33.5q-18 8 -29 26.5t-11 41.5
q0 44 32 70t85 26q52 0 83.5 -26.5t31.5 -69.5q0 -25 -10.5 -43.5t-28.5 -25.5q21 -11 33.5 -33.5t12.5 -50.5q0 -48 -33.5 -77t-88.5 -29q-57 0 -90.5 29zM451.5 207.5q6.5 8.5 6.5 24.5q0 15 -6.5 24t-17.5 9q-12 0 -19.5 -9t-7.5 -24t7.5 -24t19.5 -9q11 0 17.5 8.5z
M455 86.5q8 10.5 8 28.5q0 17 -8 27t-21 10q-14 0 -22.5 -10t-8.5 -27q0 -18 8.5 -28.5t22.5 -10.5q13 0 21 10.5z" />
    </font>
</defs>
</svg>
